Ссылка на приватное зеркало нашего сайта всего за 1$. Внимание количество ограничено!!!

2 сезон

iTunes

1 сезон

1

2 сезон

2 сезон

iTunes

1 сезон

RePack

30

Новинка

ВАЖНО

ИГРА 18+

pack

RePack

MK11
pack

Забери бонус

RePack

jed

!!Акция!!

Alien_Rage

RePack

fifa19

RePack

Assassins Creed: Odyssey

RePack

NEED FOR SPEED™ PAYBACK

4 сезон

9 сезон

Бесстыжие 9 сезон

Все сериалы

все сериалы на PB.wtf

RePack

FAR CRY 5
  

Криптон / Krypton / Сезон: 1 / серии 01-10 (10) (Киаран Доннелли) [2018, Фантастика, боевик, драма, приключения, WEBRip 720p] [MVO] (Jaskier) pb.wtf

Криптон через торрент pb.wtf

Размер: 10.4 GB | Добавлен: 2 года 5 мес. назад | Торрент скачан:28 раз
Скачать  

23-03-2018 15:20 Криптон Скачать торрент  

Криптон|Krypton

Год выпуска: 2018
Страна:США
Жанр: Фантастика, боевик, драма, приключения
Продолжительность: ~ 00:45:00
Перевод: Профессиональный (многоголосый закадровый) | Jaskier

Режиссёр:Киаран Доннелли

В ролях:Камерон Каффе, Джорджина Кэмпбелл, Йен МакЭлхинни, Эллиот Кауэн, Энн Огбомо, Расмус Хардайкер, Уоллис Дэй, Аарон Пьер, Гордон Александр

Описание: В центре фантастического сериала — события, происходившие на родной планете мальчика с необычными способностями, который стал Суперменом. Действие разворачивается за несколько десятилетий до гибели планеты. Дед Супермена, всю жизнь веривший в равенство всех жителей планеты Криптон, решает вести непримиримую борьбу с беспорядками и очистить славное имя Элов…



Качество: WEBRip 720p
Формат: MKV
Видео: 1280x720 (16:9) | X264 | ~2349 kbps | 23.976 fps
Аудио 1: AC3, 48,0 КГц, 6 ch, 384 kbps - [RUS]
Аудио 2: AC3, 48,0 КГц, 6 ch, 384 kbps - [ENG]
Переведено и озвучено: студией Jaskier
Общее
Уникальный идентификатор                 : 146344692194383367546001392058911988251 (0x6E18F665BD72526064D6AB57D29C9A1B)
Полное имя                               : F:\Jaskier\Krypton Season 1 (WEBRip l 720p l Jaskier)\Krypton.S01E01.WEBRip.720p.Jaskier.mkv
Формат                                   : Matroska
Версия формата                           : Version 4 / Version 2
Размер файла                             : 961 Мбайт
Продолжительность                        : 43 м. 6 с.
Режим общего битрейта                    : Переменный
Общий поток                              : 3119 Кбит/сек
Дата кодирования                         : UTC 2018-03-23 14:25:36
Программа кодирования                    : mkvmerge v19.0.0 ('Brave Captain') 64-bit
Библиотека кодирования                   : libebml v1.3.5 + libmatroska v1.4.8

Видео
Идентификатор                            : 1
Формат                                   : AVC
Формат/Информация                        : Advanced Video Codec
Профиль формата                          : High@L3.1
Настройки формата                        : CABAC / 5 Ref Frames
Параметр CABAC формата                   : Да
Параметр RefFrames формата               : 5 кадров
Идентификатор кодека                     : V_MPEG4/ISO/AVC
Продолжительность                        : 43 м. 6 с.
Вид битрейта                             : Переменный
Битрейт                                  : 2349 Кбит/сек
Максимальный битрейт                     : 4500 Кбит/сек
Ширина                                   : 1280 пикселей
Высота                                   : 720 пикселей
Соотношение сторон                       : 16:9
Режим частоты кадров                     : Постоянный
Частота кадров                           : 23,976 (24000/1001) кадра/сек
Цветовое пространство                    : YUV
Субдискретизация насыщенности            : 4:2:0
Битовая глубина                          : 8 бит
Тип развёртки                            : Прогрессивная
Бит/(Пиксели*Кадры)                      : 0.106
Размер потока                            : 724 Мбайт (75%)
Default                                  : Да
Forced                                   : Нет
Цветовой диапазон                        : Limited
Основные цвета                           : BT.709
Характеристики трансфера                 : BT.709
Коэффициенты матрицы                     : BT.709

Аудио #1
Идентификатор                            : 2
Формат                                   : AC-3
Формат/Информация                        : Audio Coding 3
Идентификатор кодека                     : A_AC3
Продолжительность                        : 43 м. 6 с.
Вид битрейта                             : Постоянный
Битрейт                                  : 384 Кбит/сек
Каналы                                   : 6 каналов
Расположение каналов                     : Front: L C R, Side: L R, LFE
Частота                                  : 48,0 КГц
Частота кадров                           : 31,250 кадров/сек (1536 SPF)
Битовая глубина                          : 16 бит
Метод сжатия                             : С потерями
Размер потока                            : 118 Мбайт (12%)
Заголовок                                : Jaskier
Язык                                     : Russian
ServiceKind/String                       : Complete Main
Default                                  : Да
Forced                                   : Нет

Аудио #2
Идентификатор                            : 3
Формат                                   : AC-3
Формат/Информация                        : Audio Coding 3
Идентификатор кодека                     : A_AC3
Продолжительность                        : 43 м. 6 с.
Вид битрейта                             : Постоянный
Битрейт                                  : 384 Кбит/сек
Каналы                                   : 6 каналов
Расположение каналов                     : Front: L C R, Side: L R, LFE
Частота                                  : 48,0 КГц
Частота кадров                           : 31,250 кадров/сек (1536 SPF)
Битовая глубина                          : 16 бит
Метод сжатия                             : С потерями
Размер потока                            : 118 Мбайт (12%)
Язык                                     : English
ServiceKind/String                       : Complete Main
Default                                  : Нет
Forced                                   : Нет
скриншот  скриншот  скриншот  
Когда раздача ведётся путём добавления новых серий, при каждом добавлении создётся новый торрент. Чтобы начать докачку новой серии, пользователям необходимо сделать следующее:
(1) остановить скачивание,
(2) удалить старый торрент у себя из клиента (старые серии удалять не надо),
(3) скачать новый торрент и запустить его у себя в клиенте вместо старого, при этом указать клиенту путь в старую папку, куда и должно происходить скачивание новых серий.
Ваш клиент при этом должен произвести хеширование (проверку) старой папки (если не производит сам - помогите ему сделать это), и будет докачивать только те серии, которых у вас ещё нет. Старые серии при этом не удаляются, а продолжают раздаваться!
Eсли вы уже удалили старые серии, то предотвратить повторную закачку старых серий можно, отжав галочку в соответсвующих местах при запуске нового торрента. По возможности, желательно не удалять старые серии как можно дольше, чтобы релизёр не столько продолжал раздавать старые серии, а смог сконцентрироваться на новых.
pb.wtf



Скачать Криптон через торрент http://i100.fastpic.ru/big/2018/0323/05/5ffe4b54a0d434541147d8eee36d7305.png Скачать фильм Криптон через торрент бесплантно в хорошем качестве Описание: В центре фантастического сериала — события, происходившие на родной планете мальчика с необычными способностями, который стал ... 7.2 10 11
Торрент: Зарегистрирован [2018-05-30 16:45] · скачан: 28 раз
Статус: √ проверено
Размер: 10.4 GB
Как cкачать? Как скачать Криптон через торрент | qTorrent

% Раздел Тема Автор DL S | L
Зарубежные сериалы [ 6.06 GB ] Криптон / Krypton / Сезон: 2 / Серии: 1-10 из 10 [2019 WEB-DLRip] DUB [Novamedia] bober100 Скачать
1 | 0
Зарубежные сериалы [ 28.05 GB ] Криптон / Krypton / Сезон: 2 / Серии: 1-10 из 10 [2019 WEB-DL 1080p] DUB [Novamedia] +MVO [Good People] bober100 Скачать
1 | 0
Зарубежные сериалы [ 26.9 GB ] Криптон / Krypton / Сезон: 2 / Серии: 1-10 из 10 [2019 WEB-DL 1080p] MVO [Lostfilm] bober100 Скачать
2 | 0
Зарубежные сериалы [ 6.06 GB ] Криптон / Krypton / Сезон: 2 / Серии: 1-10 из 10 [2019 WEB-DLRip] [MVO] killermax2013 Скачать
1 | 0
Зарубежные сериалы [ 7.26 GB ] Криптон / Krypton / Сезон: 2 / Серии: 1-10 из 10 [2019 WEBRip] MVO [TVShows] bober100 Скачать
1 | 0
Зарубежные сериалы [ 12.71 GB ] Криптон / Krypton / Сезон: 2 / Серии: 1-10 из 10 [2019 WEB-DL 720p] MVO [Lostfilm] bober100 Скачать
1 | 0
Зарубежные сериалы [ 28.06 GB ] Криптон / Krypton / Сезон: 2 / Серии: 1-10 из 10 [2019 WEB-DL 1080p] MVO [TVShows] bober100 Скачать
1 | 0


Последний раз редактировалось: killermax2013 (2018-05-30 16:45), всего редактировалось 8 раз(а)

28-11-2019 20:33  

Отключить всю рекламу на сайте

12-05-2018 10:27 Криптон Скачать торрент  

+8pb.wtf



    Дорогой пользователь! Огромная просьба, поблагодарите релизера, оцените раздачу и оставьте свои комментарий, если Вы скачали Криптон через торрент бесплатно! Внесите свою лепту в развитие PiratBit!
    Комментировать посты могут только пользователи прошедшие не сложную регистрацию
    Показать сообщения:    

    Криптон через торрент
    Скачать бесплатно Криптон
    Криптон скачать торрент
    Криптон смотреть онлайн
    Cкачать фильм Криптон бесплатно
    Криптон скачать торрент в хорошем качестве
    Криптон смотреть онлайн бесплатно в хорошем качестве


    Вы не можете начинать темы
    Вы не можете отвечать на сообщения
    Вы не можете редактировать свои сообщения
    Вы не можете удалять свои сообщения
    Вы не можете голосовать в опросах
    Вы не можете прикреплять файлы к сообщениям
    Вы можете скачивать файлы