новый адрес пиратбит piratbit
Мега распродажа FORZA HORIZON 4 ULTIMATE+ВСЕ DLC+ОНЛАЙН всего за 499р. 349 руб. (супер цена). Внимание количество ограничено!!!

iTunes

1+1

iTunes

мы

iTunes

1

iTunes

Чернобыль

iTunes

Ральф против интернета

Лицензия

ПШазам

Лицензия

Игра престолов

Лицензия

30
pack

ВАЖНО

!!Акция!!

Alien_RageХит недели

RePack

Resident Evil 21

ИГРА 18+

pack

RePack

Metro:Exodus

!!Акция!!

Alien_Rage

RePack

fifa19

RePack

Assassins Creed: Odyssey

RePack

NEED FOR SPEED™ PAYBACK

3 сезон

9 сезон

Бесстыжие 9 сезон

Все сериалы

все сериалы на PB.wtf

RePack

FAR CRY 5
Ребята, катастрофически не хватает 1900р. для оплаты серверов за Октябрь (всвязи с блокировками трафик упал в 3 раза), 1-2р., выручайте.
  

Седьмой гость (Игорь Москвитин) [2018 г., Детектив, WEB-DLRip, Не требуется Русский] pb.wtf

Седьмой гость через торрент pb.wtf

Размер: 1.17 GB | Добавлен: 1 год 7 мес. назад | Торрент скачан:265 раз
Скачать  

24-03-2018 04:29 Седьмой гость Скачать торрент  

Седьмой гость
Год выпуска: 2018
Страна: Россия
Жанр: Детектив
Продолжительность: 01:33:24
Перевод: Не требуется Русский

Режиссер: Игорь Москвитин

В ролях: Дарья Егорова, Илья Носков, Александр Тютин, Евгений Шириков, Сергей Радченко, Наталия Васько, Анна Сагайдачная, Екатерина Тышкевич

Описание: Валя и Андрей любили друг друга. Она — дочь бизнесмена, он — работник автосервиса. Но Валя подчинилась воле родителей и вышла замуж за сына чиновника городской администрации Кирилла. Семейная жизнь в семьях Вали и Андрея складывалась несчастливо. Валя ушла от мужа и вернулась в родной город. Валя и Андрей встретились и больше не хотели расставаться. Но Кирилл не собирался отпускать Валю. Он пригласил её, Андрея и ещё нескольких человек на «очную ставку», на которой обещал раскрыть некую тайну из прошлого. Он уверял, что, узнав тайну, Валя бросит Андрея и вернётся в семью. В силу трагических обстоятельств очная ставка не состоялась. Вале пришлось нанимать частного детектива, чтобы разобраться в тайнах прошлого и найти таинственного седьмого участника несостоявшейся встречи.

Качество: WEB-DLRip
Формат: AVI
Видео кодек: XviD
Аудио кодек: AC3
Видео: XviD, 720x400, 1 593 Kbps
Аудио#1: AC-3, 48.0 KHz, 2 ch, 192 Kbps
скриншот   скриншот   скриншот   скриншот  

Общее
Полное имя : E:\NNM\Седьмой гость\Sedjmoj gostj 2018 WEB-DLRip.avi
Формат : AVI
Формат/Информация : Audio Video Interleave
Размер файла : 1,17 Гбайт
Продолжительность : 1 ч. 33 м.
Общий поток : 1794 Кбит/сек
Программа кодирования : VirtualDubMod 1.5.10.3 (build 2550/release)
Библиотека кодирования : VirtualDubMod build 2550/release

Видео
Идентификатор : 0
Формат : MPEG-4 Visual
Профиль формата : Advanced Simple@L5
Настройки формата : BVOP1 / Custom Matrix
Параметр BVOP формата : 1
Параметр QPel формата : Нет
Параметр GMC формата : Без точки перехода
Параметр матрицы формата : Выборочная
Идентификатор кодека : XVID
Идентификатор кодека/Подсказка : XviD
Продолжительность : 1 ч. 33 м.
Битрейт : 1593 Кбит/сек
Ширина : 720 пикселей
Высота : 400 пикселей
Соотношение сторон : 16:9
Частота кадров : 24,000 кадра/сек
Цветовое пространство : YUV
Субдискретизация насыщенности : 4:2:0
Битовая глубина : 8 бит
Тип развёртки : Прогрессивная
Метод сжатия : С потерями
Бит/(Пиксели*Кадры) : 0.230
Размер потока : 1,04 Гбайт (89%)
Библиотека кодирования : XviD 73

Аудио
Идентификатор : 1
Формат : AC-3
Формат/Информация : Audio Coding 3
Идентификатор кодека : 2000
Продолжительность : 1 ч. 33 м.
Вид битрейта : Постоянный
Битрейт : 192 Кбит/сек
Каналы : 2 канала
Расположение каналов : Front: L R
Частота : 48,0 КГц
Частота кадров : 31,250 кадров/сек (1536 SPF)
Битовая глубина : 16 бит
Метод сжатия : С потерями
Размер потока : 128 Мбайт (11%)
Выравнивание : Разделение по промежуткам
Продолжительность промежутка : 42 мс. (1,00 видеокадр)
Время предзагрузки промежутка : 500 мс.
ServiceKind/String : Complete Main

pb.wtf



Скачать Седьмой гость через торрент http://i103.fastpic.ru/big/2018/0324/25/d695ce3f8737c803aebb286caa119a25.jpg Скачать фильм Седьмой гость через торрент бесплантно в хорошем качестве Описание: Валя и Андрей любили друг друга. Она — дочь бизнесмена, он — работник автосервиса. Но Валя подчинилась воле родителей и вышла ... 9.9 10 8
Торрент: Зарегистрирован [2018-03-24 04:29] · скачан: 265 раз
Статус: √ проверено
Размер: 1.17 GB
Как cкачать? Как скачать Седьмой гость через торрент | qTorrent


>> Регистрируемся здесь <<






Отзывы и комментарии о схеме читаем и пишем здесь: ---> Отзывы и комментарии о схеме

Новые благодарочки в телеграм довольных пользователей:
скриншот   скриншот   скриншот   скриншот   скриншот
    Дорогой пользователь! Огромная просьба, поблагодарите релизера, оцените раздачу и оставьте свои комментарий, если Вы скачали Седьмой гость через торрент бесплатно! Внесите свою лепту в развитие PiratBit!
    Комментировать посты могут только пользователи прошедшие не сложную регистрацию
    Показать сообщения:    

    Седьмой гость через торрент
    Скачать бесплатно Седьмой гость
    Седьмой гость скачать торрент
    Седьмой гость смотреть онлайн
    Cкачать фильм Седьмой гость бесплатно
    Седьмой гость скачать торрент в хорошем качестве
    Седьмой гость смотреть онлайн бесплатно в хорошем качестве


    Вы не можете начинать темы
    Вы не можете отвечать на сообщения
    Вы не можете редактировать свои сообщения
    Вы не можете удалять свои сообщения
    Вы не можете голосовать в опросах
    Вы не можете прикреплять файлы к сообщениям
    Вы можете скачивать файлы