Ссылка на приватное зеркало всего за 1$. Внимание количество ограничено!!!

OK

1+1

iTunes

мы

OK

1

WEB-DLRip

Джокер

Пифагор

Ведьмак / The Witcher сериал

Лицензия

ПШазам

ОК

Оно 2

iTunes

30
pack

Вам бонус

ВАЖНО

!!Акция!!

Alien_RageХит недели

RePack

Resident Evil 21

ИГРА 18+

pack

RePack

jed

RePack

fifa19

RePack

Assassins Creed: Odyssey

RePack

NEED FOR SPEED™ PAYBACK

4 сезон

9 сезон

Бесстыжие 9 сезон

Все сериалы

все сериалы на PB.wtf

RePack

FAR CRY 5
  

Астрал 4: Последний ключ / Insidious: The Last Key (Адам Робител) [2018, ужасы, триллер, BD Remux 1080p] DUB [iTunes] pb.wtf

Астрал 4: Последний ключ через торрент pb.wtf

Размер: 20.52 GB | Добавлен: 1 год 9 мес. назад | Торрент скачан:180 раз
Скачать  

24-03-2018 09:51 Астрал 4: Последний ключ Скачать торрент  

Астрал 4: Последний ключ / Insidious: The Last Key
Год выпуска: 2018
Страна: Канада, США
Жанр: ужасы, триллер, детектив
Продолжительность: 01:43:11
Перевод: Дублированный | iTunes
Субтитры: Русские (forced, full), украинские (full), английские

Режиссер: Адам Робител

rating

В ролях:

Кирк Асеведо, Спенсер Лок, Джош Стюарт, Лин Шэй, Энгус Сэмпсон, Хавьер Ботет, Брюс Дэвисон, Хана Хэйес, Ли Уоннелл, Кейтлин Джерард

Описание:

Новая глава истории об экстрасенсе, которая умеет разговаривать с мертвыми. На этот раз в жизнь воплощается ее самый страшный кошмар: сущности из потустороннего мира проникают в ее собственный дом.

Качество: BD Remux 1080p
Формат: MKV

Видео: MPEG-4 AVC, 1920x1080, 25.9 Mbit/s, 23.976 fps
Аудио#1: 48 kHz, AC3, 5.1, 384 Kbps | Дублированный | iTunes | RUS |скриншот  
Аудио#2: 48 kHz, DTS-HD MA, 5.1, 2151 Kbps | Оригинал | ENG |
скриншот   скриншот   скриншот   скриншот   скриншот  

General
Unique ID : 270548793171974080387576375449429056000 (0xCB89CD5E35A3E93D36AD298844A59A00)
Complete name : C:Video111Insidious.The.Last.Key.2017.BDREMUX.1080p.ExKinoRay.mkv
Format : Matroska
Format version : Version 4 / Version 2
File size : 20.5 GiB
Duration : 1 h 43 min
Overall bit rate mode : Variable
Overall bit rate : 28.4 Mb/s
Movie name : Insidious: The Last Key 2017 from ExKinoRay
Encoded date : UTC 2018-03-23 17:35:32
Writing application : mkvmerge v21.0.0 ('Tardigrades Will Inherit The Earth') 64-bit
Writing library : libebml v1.3.5 + libmatroska v1.4.8

Video
ID : 1
Format : AVC
Format/Info : Advanced Video Codec
Format profile : High@L4.1
Format settings : CABAC / 2 Ref Frames
Format settings, CABAC : Yes
Format settings, ReFrames : 2 frames
Format settings, GOP : M=1, N=10
Codec ID : V_MPEG4/ISO/AVC
Duration : 1 h 43 min
Bit rate mode : Variable
Bit rate : 25.9 Mb/s
Width : 1 920 pixels
Height : 1 080 pixels
Display aspect ratio : 16:9
Frame rate mode : Constant
Frame rate : 23.976 (24000/1001) FPS
Color space : YUV
Chroma subsampling : 4:2:0
Bit depth : 8 bits
Scan type : Progressive
Bits/(Pixel*Frame) : 0.520
Stream size : 18.7 GiB (91%)
Language : English
Default : Yes
Forced : No

Audio #1
ID : 2
Format : AC-3
Format/Info : Audio Coding 3
Codec ID : A_AC3
Duration : 1 h 43 min
Bit rate mode : Constant
Bit rate : 384 kb/s
Channel(s) : 6 channels
Channel positions : Front: L C R, Side: L R, LFE
Sampling rate : 48.0 kHz
Frame rate : 31.250 FPS (1536 SPF)
Bit depth : 16 bits
Compression mode : Lossy
Stream size : 284 MiB (1%)
Title : iTunes
Language : Russian
Service kind : Complete Main
Default : Yes
Forced : Yes

Audio #2
ID : 3
Format : DTS
Format/Info : Digital Theater Systems
Format profile : MA / Core
Codec ID : A_DTS
Duration : 1 h 43 min
Bit rate mode : Variable / Constant
Bit rate : 2 151 kb/s / 1 509 kb/s
Channel(s) : 6 channels
Channel positions : Front: L C R, Side: L R, LFE
Sampling rate : 48.0 kHz
Frame rate : 93.750 FPS (512 SPF)
Bit depth : 16 bits
Compression mode : Lossless / Lossy
Stream size : 1.55 GiB (8%)
Title : Original
Language : English
Default : No
Forced : No

Text #1
ID : 4
Format : UTF-8
Codec ID : S_TEXT/UTF8
Codec ID/Info : UTF-8 Plain Text
Duration : 1 h 41 min
Bit rate : 0 b/s
Count of elements : 5
Stream size : 281 Bytes (0%)
Title : Forced
Language : Russian
Default : Yes
Forced : Yes

Text #2
ID : 5
Format : UTF-8
Codec ID : S_TEXT/UTF8
Codec ID/Info : UTF-8 Plain Text
Duration : 1 h 42 min
Bit rate : 49 b/s
Count of elements : 852
Stream size : 37.0 KiB (0%)
Title : Full
Language : Russian
Default : No
Forced : No

Text #3
ID : 6
Format : UTF-8
Codec ID : S_TEXT/UTF8
Codec ID/Info : UTF-8 Plain Text
Duration : 1 h 42 min
Bit rate : 47 b/s
Count of elements : 852
Stream size : 35.6 KiB (0%)
Title : Full
Language : Ukrainian
Default : No
Forced : No

Text #4
ID : 7
Format : UTF-8
Codec ID : S_TEXT/UTF8
Codec ID/Info : UTF-8 Plain Text
Duration : 1 h 34 min
Bit rate : 34 b/s
Count of elements : 835
Stream size : 23.6 KiB (0%)
Title : Full
Language : English
Default : No
Forced : No

Menu
00:00:00.000 : en:00:00:00.000
00:16:21.397 : en:00:16:21.397
00:19:55.111 : en:00:19:55.111
00:22:29.056 : en:00:22:29.056
00:29:03.617 : en:00:29:03.617
00:36:24.307 : en:00:36:24.307
00:44:05.685 : en:00:44:05.685
00:54:14.168 : en:00:54:14.168
00:57:21.855 : en:00:57:21.855
01:02:08.183 : en:01:02:08.183
01:05:17.664 : en:01:05:17.664
01:10:17.964 : en:01:10:17.964
01:16:58.239 : en:01:16:58.239
01:22:11.593 : en:01:22:11.593
01:29:49.467 : en:01:29:49.467
01:34:34.252 : en:01:34:34.252

pb.wtf



Скачать Астрал 4: Последний ключ через торрент http://img12.lostpic.net/2018/03/21/25ac2b1aea2c8fa5beb6a9976aa45308.jpg Скачать фильм Астрал 4: Последний ключ через торрент бесплантно в хорошем качестве Описание: Новая глава истории об экстрасенсе, которая умеет разговаривать с мертвыми. На этот раз в жизнь воплощается ее самый страшный ... 8.5 10 6
Торрент: Зарегистрирован [2018-03-24 09:51] · скачан: 180 раз
Статус: √ проверено
Размер: 20.52 GB
Как cкачать? Как скачать Астрал 4: Последний ключ через торрент | qTorrent

% Раздел Тема Автор DL S | L
Видео для КПК и Смартфонов [ 467 MB ] Астрал 4: Последний ключ / Insidious: The Last Key [2018 HDRip КПК] DUB [] bober100 Скачать
1 | 0
Фильмы [HD 720p, 1080p] (Хороший звук DUB, MVO) [ 10.42 GB ] Астрал 4: Последний ключ / Insidious: The Last Key [2018 BDRip 1080p ] oleg8 Скачать
1 | 0
Фильмы 2018 [DVDrip, WEB-DLRip, HDrip] (DUB, MVO) [ 1.48 GB ] Астрал 4: Последний ключ / Insidious: The Last Key [2018 BDRip-AVC] DUB [] bober100 Скачать
4 | 0
Фильмы 2018 [DVDrip, WEB-DLRip, HDrip] (DUB, MVO) [ 2.18 GB ] Астрал 4: Последний ключ / Insidious: The Last Key [2018 BDRip] - [] Twi7ter Скачать
4 | 0
Фильмы 2018 [DVDrip, WEB-DLRip, HDrip] (DUB, MVO) [ 745 MB ] Астрал 4: Последний ключ / Insidious: The Last Key [2018 BDRip] DUB [] bober100 Скачать
1 | 0
Фильмы 2018 [DVDrip, WEB-DLRip, HDrip] (DUB, MVO) [ 1.46 GB ] Астрал 4: Последний ключ / Insidious: The Last Key [2018 BDRip] DUB [] bober100 Скачать
3 | 0
Фильмы 2018 [DVDrip, WEB-DLRip, HDrip] (DUB, MVO) [ 1.46 GB ] Астрал 4: Последний ключ / Insidious: The Last Key [2018 BDRip] - [] Twi7ter Скачать
1 | 0

28-11-2019 20:33  

Отключить всю рекламу на сайте

    Дорогой пользователь! Огромная просьба, поблагодарите релизера, оцените раздачу и оставьте свои комментарий, если Вы скачали Астрал 4: Последний ключ через торрент бесплатно! Внесите свою лепту в развитие PiratBit!
    Комментировать посты могут только пользователи прошедшие не сложную регистрацию
    Показать сообщения:    

    Астрал 4: Последний ключ через торрент
    Скачать бесплатно Астрал 4: Последний ключ
    Астрал 4: Последний ключ скачать торрент
    Астрал 4: Последний ключ смотреть онлайн
    Cкачать фильм Астрал 4: Последний ключ бесплатно
    Астрал 4: Последний ключ скачать торрент в хорошем качестве
    Астрал 4: Последний ключ смотреть онлайн бесплатно в хорошем качестве


    Вы не можете начинать темы
    Вы не можете отвечать на сообщения
    Вы не можете редактировать свои сообщения
    Вы не можете удалять свои сообщения
    Вы не можете голосовать в опросах
    Вы не можете прикреплять файлы к сообщениям
    Вы можете скачивать файлы