Ссылка на приватное зеркало нашего сайта всего за 1$. Внимание количество ограничено!!!

2 сезон

iTunes

1 сезон

1

iTunes

iTunes

iTunes

1 сезон

RePack

30

ИГРА 18+

pack

ВАЖНО

!!Акция!!

Alien_RageХит недели

RePack

MK11
pack

Забери бонус

RePack

jed

!!Акция!!

Alien_Rage

RePack

fifa19

RePack

Assassins Creed: Odyssey

RePack

NEED FOR SPEED™ PAYBACK

4 сезон

9 сезон

Бесстыжие 9 сезон

Все сериалы

все сериалы на PB.wtf

RePack

FAR CRY 5
  

Первый раз прощается / Серии 1-4 из 4 (Владимир Харченко-Куликовский) [2018, Драма, детектив, SATRip] pb.wtf

Первый раз прощается через торрент pb.wtf

Размер: 2.56 GB | Добавлен: 2 года 7 мес. назад | Торрент скачан:69 раз
Скачать  

24-03-2018 10:37 Первый раз прощается Скачать торрент  

Первый раз прощаетсяГод выпуска: 2018
Страна: Россия
Жанр: Драма, детектив
Продолжительность: ~ 00:45:00
Субтитры: отсутствуют

Режиссер: Владимир Харченко-Куликовский



В ролях:

Ольга Арнтгольц, Константин Самоуков, Ольга Лукьяненко, Ирина Мельник, Александра Богданович, Сергей Радченко, Людмила Ардельян, Сергей Калантай, Дмитрий Оскин, Сергей Комаровский, Станислав Скакун, Александр Ганноченко, Галина Корнеева, Валерий Легин, Андрей Клименков, Евгений Олейник, Ольга Вивчарюк, Дамир Сухов, Олег Треповский, Андрей Титов, Константин Данилюк

Описание:

Татьяна Волчкова, владелица швейной фабрики, в день десятилетия свадьбы узнает, что у любимого мужа Глеба есть ребенок и отношения на стороне. Мужчина не отрицает своей вины и попадает с инфарктом в больницу. Татьяна вынуждена выхаживать супруга, заверяющего, что любит он только ее, и смиряется с его просьбой: принести к нему в палату полугодовалую Анечку - Глеб уверен, что умрет и хочет попрощаться с дочкой. Так Волчкова знакомится и с мамой девочки – массажисткой Юлей, живущей в городе, откуда родом и Татьяна, где находится фабрика и куда приезжал в командировки Глеб. Сможет ли Татьяна простить мужа? Какие отношения сложатся у нее с бывшей любовницей мужа? Ведь Юля гораздо раньше Татьяны узнает, что их связывает, помимо одного любимого мужчины на двоих. Как давняя тайна повлияет на жизнь каждого из героев истории?

Качество: SATRip
Формат: AVI

Видео: XviD ~ 2100 Кбит/с, 720x400
Аудио#1: MP3, 2 ch, 128 Кбит/с
скриншот  скриншот  скриншот  

Общее
Полное имя : E:\Pervyj.raz.proshhaetsja.SATRip\Pervyj.raz.proshhaetsja.01,SATRip..avi
Формат : AVI
Формат/Информация : Audio Video Interleave
Размер файла : 730 Мбайт
Продолжительность : 45 м. 59 с.
Общий поток : 2220 Кбит/сек

Видео
Идентификатор : 0
Формат : MPEG-4 Visual
Профиль формата : Advanced Simple@L5
Настройки формата : BVOP2
Параметр BVOP формата : 2
Параметр QPel формата : Нет
Параметр GMC формата : Без точки перехода
Параметр матрицы формата : Default (H.263)
Идентификатор кодека : XVID
Идентификатор кодека/Подсказка : XviD
Продолжительность : 45 м. 59 с.
Битрейт : 2078 Кбит/сек
Ширина : 720 пикселей
Высота : 400 пикселей
Соотношение сторон : 16:9
Частота кадров : 25,000 кадров/сек
Цветовое пространство : YUV
Субдискретизация насыщенности : 4:2:0
Битовая глубина : 8 бит
Тип развёртки : Прогрессивная
Метод сжатия : С потерями
Бит/(Пиксели*Кадры) : 0.289
Размер потока : 684 Мбайт (94%)
Библиотека кодирования : XviD 1.2.1 (UTC 2008-12-04)

Аудио
Идентификатор : 1
Формат : MPEG Audio
Версия формата : Version 1
Профиль формата : Layer 3
Настройки формата : Joint stereo / MS Stereo
Идентификатор кодека : 55
Идентификатор кодека/Подсказка : MP3
Продолжительность : 45 м. 59 с.
Вид битрейта : Постоянный
Битрейт : 128 Кбит/сек
Каналы : 2 канала
Частота : 48,0 КГц
Частота кадров : 41,667 кадра/сек (1152 SPF)
Метод сжатия : С потерями
Размер потока : 42,1 Мбайт (6%)
Выравнивание : Соединение по промежуткам
Продолжительность промежутка : 24 мс. (0,60 видеокадр)
Библиотека кодирования : LAME3.99r
Настройки программы : -m j -V 4 -q 9 -lowpass 17 -b 128

Когда раздача ведётся путём добавления новых серий, при каждом добавлении создётся новый торрент. Чтобы начать докачку новой серии, пользователям необходимо сделать следующее:
(1) остановить скачивание,
(2) удалить старый торрент у себя из клиента (старые серии удалять не надо),
(3) скачать новый торрент и запустить его у себя в клиенте вместо старого, при этом указать клиенту путь в старую папку, куда и должно происходить скачивание новых серий.
Ваш клиент при этом должен произвести хеширование (проверку) старой папки (если не производит сам - помогите ему сделать это), и будет докачивать только те серии, которых у вас ещё нет. Старые серии при этом не удаляются, а продолжают раздаваться!
Eсли вы уже удалили старые серии, то предотвратить повторную закачку старых серий можно, отжав галочку в соответсвующих местах при запуске нового торрента. По возможности, желательно не удалять старые серии как можно дольше, чтобы релизёр не столько продолжал раздавать старые серии, а смог сконцентрироваться на новых.
pb.wtf



Скачать Первый раз прощается через торрент https://a.radikal.ru/a35/1803/cc/8c887e33a2a8.jpg Скачать фильм Первый раз прощается через торрент бесплантно в хорошем качестве Описание: Татьяна Волчкова, владелица швейной фабрики, в день десятилетия свадьбы узнает, что у любимого мужа Глеба есть ребенок и ... 10 10 7
Торрент: Зарегистрирован [2018-03-24 13:48] · скачан: 69 раз
Статус: √ проверено
Размер: 2.56 GB
Как cкачать? Как скачать Первый раз прощается через торрент | qTorrent

% Раздел Тема Автор DL S | L
Наши сериалы [ 2.34 GB ] Первый раз прощается /серии 1-4 из 4/ [2018 WEB-DLRip] oleg8 Скачать
1 | 0

28-11-2019 20:33  

Отключить всю рекламу на сайте

    Дорогой пользователь! Огромная просьба, поблагодарите релизера, оцените раздачу и оставьте свои комментарий, если Вы скачали Первый раз прощается через торрент бесплатно! Внесите свою лепту в развитие PiratBit!
    Комментировать посты могут только пользователи прошедшие не сложную регистрацию
    Показать сообщения:    

    Первый раз прощается через торрент
    Скачать бесплатно Первый раз прощается
    Первый раз прощается скачать торрент
    Первый раз прощается смотреть онлайн
    Cкачать фильм Первый раз прощается бесплатно
    Первый раз прощается скачать торрент в хорошем качестве
    Первый раз прощается смотреть онлайн бесплатно в хорошем качестве


    Вы не можете начинать темы
    Вы не можете отвечать на сообщения
    Вы не можете редактировать свои сообщения
    Вы не можете удалять свои сообщения
    Вы не можете голосовать в опросах
    Вы не можете прикреплять файлы к сообщениям
    Вы можете скачивать файлы