Всегда рабочее зеркало без VPN и Proxy просто перед .vidak.icu напиши любое слово или цифру, Пример http://2tw1.vidak.icu

iTunes

2 сезон

1 сезон

1

1 сезон

iTunes

2 сезон

13

1 сезон

Deluxe

pack

Рекомендуем

Пиратка

30

ВАЖНО

RePack

MK11

RePack

jed

RePack

fifa19

RePack

RDR2

RePack

NEED FOR SPEED™ PAYBACK

Кинопоиск HD

6 сезон

 Острые козырьки 6 сезон

Все сериалы

все сериалы на PB.wtf

RePack

FAR CRY 5

Anonymous, нам критически не хватает 5601 руб. на оплату серверов и переферии за Апрель, помоги нам пожалуйста, вся надежда только на тебя. В благодарность мы отключим тебе всю рекламу на сайте!

×
  
Magnet ссылка

Кикбоксер: Возмездие / Kickboxer: Retaliation (Димитрий Логотетис) [2017, Боевик, BDRip-AVC] [AVO] (А.Гаврилов) - ExKinoRay pb.wtf

Кикбоксер: Возмездие через торрент pb.wtf

Размер: 2.17 GB | Добавлен: 4 года 2 мес. назад | Торрент скачан:215 раз
Смотреть онлайн Кикбоксер: Возмездие | Скачать    Ребята, помогите собрать деньги на оплату серверов!!!

24-03-2018 14:34 Кикбоксер: Возмездие Скачать торрент  

Информация о фильме
Название: Кикбоксер возвращается
Оригинальное название: Kickboxer: Retaliation
Год выхода: 2018
Жанр: Боевик, драма
Страна: США
Студия: Head Gear Films
Продолжительность: 01:50:28
Перевод: Авторский (одноголосый, закадровый) | А. Гаврилов
Режиссер: Димитри Логотетис
В ролях: Ален Мусси, Кристофер Ламберт, Жан-Клод Ван Дамм, Майк Тайсон, Сара Малакул Лэйн, Хафтор Бьёрнсон, Сэм Медина, Стивен Шэдлинг, Майлс Строммен, Джессика Янн

Описание:
Продолжение боевика о мстителе Курте Слоуне, который жаждал поквитаться за своего поверженного брата. Спустя год Курт против воли возвращается в Таиланд, где перед ним встает выбор – сгнить в жестокой тюрьме или выйти на ринг против боксера-гиганта, устроив смертельное, но грандиозное и прибыльное зрелище.

rating

Файл
Формат: MKV
Качество: BDRip-AVC
Видео: MPEG-4 AVC, 1024x426 (2.40:1), 23.976 fps, ~ 2044 kbps avg, 0.195 bit/pixel
Аудио 1: 48 kHz, AC3, 5.1, 384 Kbps | RUS |
Аудио 2: 48 kHz, AC3, 5.1, 384 Kbps | ENG |
Субтитры: Английские

Сохранены оригинальные чаптеры как на Blu-Ray.
General
Unique ID : 208181590894474162218709407121254254872 (0x9C9E50E3E4D2F232AB7E0FD7DDE60918)
Complete name : D:\Kickboxer Retaliation 2018.AVO.BDRip.AVC.ExKinoRay.mkv
Format : Matroska
Format version : Version 2
File size : 2.17 GiB
Duration : 1 h 50 min
Overall bit rate : 2 813 kb/s
Movie name : Kickboxer: Retaliation (2018) from ExKinoRay
Encoded date : UTC 2018-03-24 14:14:08
Writing application : mkvmerge v5.6.0 ('Kenya Kane') built on May 27 2012 16:44:04
Writing library : libebml v1.2.3 + libmatroska v1.3.0

Video
ID : 1
Format : AVC
Format/Info : Advanced Video Codec
Format profile : High@L4.1
Format settings, CABAC : Yes
Format settings, ReFrames : 12 frames
Codec ID : V_MPEG4/ISO/AVC
Duration : 1 h 50 min
Bit rate : 2 044 kb/s
Width : 1 024 pixels
Height : 426 pixels
Display aspect ratio : 2.40:1
Frame rate mode : Constant
Frame rate : 23.976 (23976/1000) FPS
Color space : YUV
Chroma subsampling : 4:2:0
Bit depth : 8 bits
Scan type : Progressive
Bits/(Pixel*Frame) : 0.195
Stream size : 1.53 GiB (71%)
Title : Enigma
Writing library : x264 core 152 r2851 ba24899
Encoding settings : cabac=1 / ref=12 / deblock=1:-2:-3 / analyse=0x3:0x113 / me=umh / subme=11 / psy=1 / psy_rd=1.05:0.10 / mixed_ref=1 / me_range=32 / chroma_me=1 / trellis=2 / 8x8dct=1 / cqm=0 / deadzone=21,11 / fast_pskip=0 / chroma_qp_offset=-3 / threads=12 / lookahead_threads=3 / sliced_threads=0 / nr=0 / decimate=0 / interlaced=0 / bluray_compat=0 / constrained_intra=0 / bframes=14 / b_pyramid=2 / b_adapt=2 / b_bias=0 / direct=3 / weightb=1 / open_gop=0 / weightp=2 / keyint=240 / keyint_min=23 / scenecut=40 / intra_refresh=0 / rc_lookahead=40 / rc=2pass / mbtree=0 / bitrate=2044 / ratetol=1.0 / qcomp=0.60 / qpmin=0 / qpmax=51 / qpstep=4 / cplxblur=20.0 / qblur=0.5 / vbv_maxrate=50000 / vbv_bufsize=62500 / nal_hrd=none / filler=0 / ip_ratio=1.35 / pb_ratio=1.30 / aq=3:0.80
Language : English
Default : Yes
Forced : No
Color range : Limited
Color primaries : BT.709
Transfer characteristics : BT.709
Matrix coefficients : BT.709

Audio #1
ID : 2
Format : AC-3
Format/Info : Audio Coding 3
Mode extension : CM (complete main)
Format settings, Endianness : Big
Codec ID : A_AC3
Duration : 1 h 50 min
Bit rate mode : Constant
Bit rate : 384 kb/s
Channel(s) : 6 channels
Channel positions : Front: L C R, Side: L R, LFE
Sampling rate : 48.0 kHz
Frame rate : 31.250 FPS (1536 spf)
Compression mode : Lossy
Stream size : 303 MiB (14%)
Title : AVO (Gavrilov)
Language : Russian
Default : Yes
Forced : No

Audio #2
ID : 3
Format : AC-3
Format/Info : Audio Coding 3
Mode extension : CM (complete main)
Format settings, Endianness : Big
Codec ID : A_AC3
Duration : 1 h 50 min
Bit rate mode : Constant
Bit rate : 384 kb/s
Channel(s) : 6 channels
Channel positions : Front: L C R, Side: L R, LFE
Sampling rate : 48.0 kHz
Frame rate : 31.250 FPS (1536 spf)
Compression mode : Lossy
Stream size : 303 MiB (14%)
Language : English
Default : No
Forced : No

Text
ID : 4
Format : UTF-8
Codec ID : S_TEXT/UTF8
Codec ID/Info : UTF-8 Plain Text
Language : English
Default : No
Forced : No

Menu
00:00:00.000 : en:00:00:00.000
00:07:57.477 : en:00:07:57.477
00:10:49.524 : en:00:10:49.524
00:12:31.042 : en:00:12:31.042
00:17:17.745 : en:00:17:17.745
00:25:56.180 : en:00:25:56.180
00:29:14.419 : en:00:29:14.419
00:31:40.982 : en:00:31:40.982
00:35:42.098 : en:00:35:42.098
00:43:30.233 : en:00:43:30.233
00:52:10.502 : en:00:52:10.502
00:59:07.294 : en:00:59:07.294
01:12:11.285 : en:01:12:11.285
01:16:48.103 : en:01:16:48.103
01:32:17.824 : en:01:32:17.824
01:46:04.900 : en:01:46:04.900
Релиз от:

Автор релиза: pb.wtf



Скачать Кикбоксер: Возмездие через торрент http://b.radikal.ru/b20/1803/b9/c24802569b5d.jpg Скачать, смотреть онлайн Кикбоксер: Возмездие бесплантно в хорошем качестве Описание:Продолжение боевика о мстителе Курте Слоуне, который жаждал поквитаться за своего поверженного брата. Спустя год Курт против воли ... 10 10 3
Info! Золотая раздача, скачанное не засчитывается.
Торрент: Зарегистрирован [2018-03-24 14:34] · скачан: 215 раз
Статус: √ проверено
Размер: 2.17 GB
Как cкачать? Как скачать Кикбоксер: Возмездие через торрент | UTorrent

28-11-2019 20:33  

Отключить всю рекламу на сайте

    Дорогой пользователь! Огромная просьба, поблагодарите релизера, оцените раздачу и оставьте свои комментарий, если Вы скачали Кикбоксер: Возмездие через торрент бесплатно!
    Комментировать посты могут только пользователи прошедшие не сложную регистрацию
    Показать сообщения:    

    Кикбоксер: Возмездие через торрент
    Скачать бесплатно Кикбоксер: Возмездие
    Кикбоксер: Возмездие скачать торрент
    Кикбоксер: Возмездие смотреть онлайн
    Cкачать фильм Кикбоксер: Возмездие бесплатно
    Кикбоксер: Возмездие скачать торрент в хорошем качестве
    Кикбоксер: Возмездие смотреть онлайн бесплатно в хорошем качестве


    Вы не можете начинать темы
    Вы не можете отвечать на сообщения
    Вы не можете редактировать свои сообщения
    Вы не можете удалять свои сообщения
    Вы не можете голосовать в опросах
    Вы не можете прикреплять файлы к сообщениям
    Вы можете скачивать файлы