Ссылка на приватное зеркало нашего сайта всего за 1$. Внимание количество ограничено!!!

2 сезон

iTunes

1 сезон

1

iTunes

iTunes

iTunes

1 сезон

RePack

30

ИГРА 18+

pack

ВАЖНО

!!Акция!!

Alien_RageХит недели

RePack

MK11
pack

Забери бонус

RePack

jed

!!Акция!!

Alien_Rage

RePack

fifa19

RePack

Assassins Creed: Odyssey

RePack

NEED FOR SPEED™ PAYBACK

4 сезон

9 сезон

Бесстыжие 9 сезон

Все сериалы

все сериалы на PB.wtf

RePack

FAR CRY 5
  

Родные пенаты / Серии 1-4 из 4 (Михаил Жерневский) [2018, Мелодрама, SATRip] pb.wtf

Родные пенаты через торрент pb.wtf

Размер: 2.22 GB | Добавлен: 2 года 7 мес. назад | Торрент скачан:104 раза
Скачать  

24-03-2018 14:38 Родные пенаты Скачать торрент  

Родные пенатыГод выпуска: 2018
Страна: Россия
Жанр: Мелодрама
Продолжительность: ~ 00:45:00
Субтитры: отсутствуют

Режиссер: Михаил Жерневский



В ролях:

Яна Шивкова (Николаева), Владислав Резник, Наталия Дмитриева, Игорь Ботвин, Ирина Сотикова

Описание:

У Татьяны есть все, о чем только можно мечтать - дом - полная чаша, сын Артем, понимающая свекровь и любимый муж Борис, полностью обеспечивающий семью. Но вдруг после тринадцати лет счастливой жизни брак рушится, а сказка оказывается мыльным пузырем. Татьяна застает мужа с любовницей. Она собирается уйти, но разгневанный Борис угрожает в случае развода отобрать у нее сына. Татьяна забирает Артема и сбегает из дома. Единственное пристанище Татьяна находит у своей давней подруги Елены в отеле "Родные пенаты", хозяином которого является вдовец Дмитрий. Жить Тане негде, денег нет, поэтому чтобы хоть как-то сводить концы с концами, она устраивается в отель уборщицей и поселяется в маленькой каморке.

Качество: SATRip
Формат: AVI

Видео: XviD ~ 1800 Кбит/с, 720x400
Аудио: MP3, 2 ch, 128 Кбит/с
скриншот  скриншот  скриншот  скриншот  

Общее
Полное имя : E:\торреннты\Rodnye.penaty.SATRip\Rodnye.penaty.01.SATRip..avi
Формат : AVI
Формат/Информация : Audio Video Interleave
Размер файла : 634 Мбайт
Продолжительность : 45 м. 44 с.
Общий поток : 1938 Кбит/сек
Программа кодирования : VirtualDubMod 1.5.10.3 | www.virtualdub-fr.org || (build 2550/release)
Библиотека кодирования : VirtualDubMod build 2550/release

Видео
Идентификатор : 0
Формат : MPEG-4 Visual
Профиль формата : Advanced Simple@L5
Настройки формата : BVOP2
Параметр BVOP формата : 2
Параметр QPel формата : Нет
Параметр GMC формата : Без точки перехода
Параметр матрицы формата : Default (H.263)
Идентификатор кодека : XVID
Идентификатор кодека/Подсказка : XviD
Продолжительность : 45 м. 44 с.
Битрейт : 1800 Кбит/сек
Ширина : 720 пикселей
Высота : 400 пикселей
Соотношение сторон : 16:9
Частота кадров : 25,000 кадров/сек
Цветовое пространство : YUV
Субдискретизация насыщенности : 4:2:0
Битовая глубина : 8 бит
Тип развёртки : Прогрессивная
Метод сжатия : С потерями
Бит/(Пиксели*Кадры) : 0.250
Размер потока : 589 Мбайт (93%)
Библиотека кодирования : XviD 1.2.1 (UTC 2008-12-04)

Аудио
Идентификатор : 1
Формат : MPEG Audio
Версия формата : Version 1
Профиль формата : Layer 3
Настройки формата : Joint stereo / MS Stereo
Идентификатор кодека : 55
Идентификатор кодека/Подсказка : MP3
Продолжительность : 45 м. 44 с.
Вид битрейта : Постоянный
Битрейт : 128 Кбит/сек
Каналы : 2 канала
Частота : 48,0 КГц
Частота кадров : 41,667 кадра/сек (1152 SPF)
Метод сжатия : С потерями
Размер потока : 41,9 Мбайт (7%)
Выравнивание : Соединение по промежуткам
Продолжительность промежутка : 40 мс. (1,00 видеокадр)
Время предзагрузки промежутка : 504 мс.
Библиотека кодирования : LAME3.99r
Настройки программы : -m j -V 4 -q 9 -lowpass 17 -b 128

Когда раздача ведётся путём добавления новых серий, при каждом добавлении создётся новый торрент. Чтобы начать докачку новой серии, пользователям необходимо сделать следующее:
(1) остановить скачивание,
(2) удалить старый торрент у себя из клиента (старые серии удалять не надо),
(3) скачать новый торрент и запустить его у себя в клиенте вместо старого, при этом указать клиенту путь в старую папку, куда и должно происходить скачивание новых серий.
Ваш клиент при этом должен произвести хеширование (проверку) старой папки (если не производит сам - помогите ему сделать это), и будет докачивать только те серии, которых у вас ещё нет. Старые серии при этом не удаляются, а продолжают раздаваться!
Eсли вы уже удалили старые серии, то предотвратить повторную закачку старых серий можно, отжав галочку в соответсвующих местах при запуске нового торрента. По возможности, желательно не удалять старые серии как можно дольше, чтобы релизёр не столько продолжал раздавать старые серии, а смог сконцентрироваться на новых.
pb.wtf



Скачать Родные пенаты через торрент http://i101.fastpic.ru/big/2018/0324/55/744089958ad8a18b029373ec24685455.jpg Скачать фильм Родные пенаты через торрент бесплантно в хорошем качестве Описание: У Татьяны есть все, о чем только можно мечтать - дом - полная чаша, сын Артем, понимающая свекровь и любимый муж Борис, полностью ... 10 10 6
Торрент: Зарегистрирован [2018-03-24 17:36] · скачан: 104 раз
Статус: √ проверено
Размер: 2.22 GB
Как cкачать? Как скачать Родные пенаты через торрент | qTorrent

28-11-2019 20:33  

Отключить всю рекламу на сайте

    Дорогой пользователь! Огромная просьба, поблагодарите релизера, оцените раздачу и оставьте свои комментарий, если Вы скачали Родные пенаты через торрент бесплатно! Внесите свою лепту в развитие PiratBit!
    Комментировать посты могут только пользователи прошедшие не сложную регистрацию
    Показать сообщения:    

    Родные пенаты через торрент
    Скачать бесплатно Родные пенаты
    Родные пенаты скачать торрент
    Родные пенаты смотреть онлайн
    Cкачать фильм Родные пенаты бесплатно
    Родные пенаты скачать торрент в хорошем качестве
    Родные пенаты смотреть онлайн бесплатно в хорошем качестве


    Вы не можете начинать темы
    Вы не можете отвечать на сообщения
    Вы не можете редактировать свои сообщения
    Вы не можете удалять свои сообщения
    Вы не можете голосовать в опросах
    Вы не можете прикреплять файлы к сообщениям
    Вы можете скачивать файлы