Ссылка на приватное зеркало нашего сайта всего за 1$. Внимание количество ограничено!!!

2 сезон

iTunes

1 сезон

1

2 сезон

2 сезон

iTunes

1 сезон

RePack

30

Ultimate

ВАЖНО

ИГРА 18+

pack

RePack

MK11
pack

Забери бонус

RePack

jed

!!Акция!!

Alien_Rage

RePack

fifa19

RePack

Assassins Creed: Odyssey

RePack

NEED FOR SPEED™ PAYBACK

4 сезон

9 сезон

Бесстыжие 9 сезон

Все сериалы

все сериалы на PB.wtf

RePack

FAR CRY 5
  

Лунатик / Sleepwalker (Эллиотт Лестер) [2017, триллер, WEB-DL 1080p] MVO [AlexFilm] pb.wtf

Лунатик через торрент pb.wtf

Размер: 3.22 GB | Добавлен: 2 года 8 мес. назад | Торрент скачан:101 раз
Скачать  

25-03-2018 07:54 Лунатик Скачать торрент  

Лунатик / SleepwalkerГод выпуска: 2017
Страна: США
Жанр: триллер
Продолжительность: 01:27:53
Перевод: Профессиональный многоголосый |
Субтитры: английские

Режиссер: Эллиотт Лестер

rating

В ролях:

Ана О Райли, Ричард Армитедж, Джэйк Бродер, Мэттью Дель Негро, Девон Франклин, Эмма Фитцпатрик, Дэмиен Лик, Альберта Мэйн, Рэйчел Мелвин, Адам О Берн

Описание:

Сара обращается в клинику для того, чтобы излечиться от бессонницы и ночных кошмаров, но вместо этого начинает чувствовать тревожные изменения каждый раз, когда просыпается. С помощью доктора девушка пытается вернуться к нормальной жизни, постепенно распутывая прочный узел из снов, реальности и даже трагического прошлого.

Качество: WEB-DL 1080p
Формат: MKV

Видео: MPEG-4 AVC, 4495 Кбит/с, 1904x728
Аудио#1: Русский (AC3, 2 ch, 256 Кбит/с)
Аудио#2: английский (AC3, 6 ch, 384 Кбит/с)
скриншот  скриншот  скриншот  

General
Unique ID : 208117802818459284575366560079253600118 (0x9C9207E52F036168B8B1CE969EDBF776)
Complete name : E:\Мои рипы\Лунатик.2017.WEB-DL.1080p.MVO.mkv
Format : Matroska
Format version : Version 4 / Version 2
File size : 3.22 GiB
Duration : 1h 27mn
Overall bit rate : 5 240 Kbps
Movie name : Sleepwalker.2017.1080p.WEB-DL.DD5.1.H.264-FGT
Encoded date : UTC 2018-03-24 22:40:22
Writing application : mkvmerge v6.8.0 ('Theme for Great Cities') 64bit built on Mar 2 2014 21:34:26
Writing library : libebml v1.3.0 + libmatroska v1.4.1

Video
ID : 1
Format : AVC
Format/Info : Advanced Video Codec
Format profile : High@L4.0
Format settings, CABAC : Yes
Format settings, ReFrames : 5 frames
Format settings, GOP : N=1
Codec ID : V_MPEG4/ISO/AVC
Duration : 1h 27mn
Bit rate : 4 496 Kbps
Width : 1 904 pixels
Height : 728 pixels
Display aspect ratio : 2.615
Frame rate mode : Constant
Frame rate : 23.976 fps
Color space : YUV
Chroma subsampling : 4:2:0
Bit depth : 8 bits
Scan type : Progressive
Bits/(Pixel*Frame) : 0.135
Stream size : 2.76 GiB (86%)
Title : Sleepwalker.2017.1080p.WEB-DL.DD5.1.H.264-FGT
Language : English
Default : Yes
Forced : No
Color primaries : BT.709
Transfer characteristics : BT.709
Matrix coefficients : BT.709

Audio #1
ID : 2
Format : AC-3
Format/Info : Audio Coding 3
Mode extension : CM (complete main)
Format settings, Endianness : Big
Codec ID : A_AC3
Duration : 1h 27mn
Bit rate mode : Constant
Bit rate : 256 Kbps
Channel(s) : 2 channels
Channel positions : Front: L R
Sampling rate : 48.0 KHz
Bit depth : 16 bits
Compression mode : Lossy
Stream size : 161 MiB (5%)
Title : MVO (Alexfilm)
Language : Russian
Default : Yes
Forced : No

Audio #2
ID : 3
Format : AC-3
Format/Info : Audio Coding 3
Mode extension : CM (complete main)
Format settings, Endianness : Big
Codec ID : A_AC3
Duration : 1h 27mn
Bit rate mode : Constant
Bit rate : 384 Kbps
Channel(s) : 6 channels
Channel positions : Front: L C R, Side: L R, LFE
Sampling rate : 48.0 KHz
Bit depth : 16 bits
Compression mode : Lossy
Stream size : 241 MiB (7%)
Title : Sleepwalker.2017.1080p.WEB-DL.DD5.1.H.264-FGT
Language : English
Default : No
Forced : No

Text
ID : 4
Format : UTF-8
Codec ID : S_TEXT/UTF8
Codec ID/Info : UTF-8 Plain Text
Language : English
Default : No
Forced : No

Menu
00:00:00.000 : en:Chapter 1
00:10:33.633 : en:Chapter 2
00:19:58.197 : en:Chapter 3
00:30:29.828 : en:Chapter 4
00:39:19.357 : en:Chapter 5
00:49:47.985 : en:Chapter 6
01:00:53.650 : en:Chapter 7
01:10:05.201 : en:Chapter 8
01:20:40.836 : en:Chapter 9
01:24:05.040 : en:Chapter 10

pb.wtf



Скачать Лунатик через торрент http://i89.fastpic.ru/big/2017/1017/54/0fe466b48bd2489621bceffd525af554.jpg Скачать фильм Лунатик через торрент бесплантно в хорошем качестве Описание: Сара обращается в клинику для того, чтобы излечиться от бессонницы и ночных кошмаров, но вместо этого начинает чувствовать ... 10 10 4
Торрент: Зарегистрирован [2018-03-25 07:54] · скачан: 101 раз
Статус: √ проверено
Размер: 3.22 GB
Как cкачать? Как скачать Лунатик через торрент | qTorrent

% Раздел Тема Автор DL S | L
Фильмы 2017 [DVDrip, WEB-DLRip, HDrip] (DUB, MVO) [ 1.1 GB ] Лунатик / Sleepwalker [2017 HDRip] [MVO] killermax2013 Скачать
1 | 0
Фильмы до 2000 г. [ 2.18 GB ] Лунатики / Sleepwalkers [1992 BDRip-AVC] MVO AVO Eng serg7628 Скачать
1 | 0

28-11-2019 20:33  

Отключить всю рекламу на сайте

    Дорогой пользователь! Огромная просьба, поблагодарите релизера, оцените раздачу и оставьте свои комментарий, если Вы скачали Лунатик через торрент бесплатно! Внесите свою лепту в развитие PiratBit!
    Комментировать посты могут только пользователи прошедшие не сложную регистрацию
    Показать сообщения:    

    Лунатик через торрент
    Скачать бесплатно Лунатик
    Лунатик скачать торрент
    Лунатик смотреть онлайн
    Cкачать фильм Лунатик бесплатно
    Лунатик скачать торрент в хорошем качестве
    Лунатик смотреть онлайн бесплатно в хорошем качестве


    Вы не можете начинать темы
    Вы не можете отвечать на сообщения
    Вы не можете редактировать свои сообщения
    Вы не можете удалять свои сообщения
    Вы не можете голосовать в опросах
    Вы не можете прикреплять файлы к сообщениям
    Вы можете скачивать файлы