1 сезон

1 сезон

iTunes

1

КиноПоиск HD

Кинопоиск HD

iTunes

13

1 сезон

RePack

30

Новинка

ВАЖНО

ИГРА 18+

pack

RePack

MK11
pack

Легкие деньги

RePack

jed

RePack

fifa19

RePack

RDR2

RePack

NEED FOR SPEED™ PAYBACK

4 сезон

9 сезон

Бесстыжие 9 сезон

Все сериалы

все сериалы на PB.wtf

RePack

FAR CRY 5
  
Magnet ссылка

Нож гильотины / Le couperet (Коста-Гаврас) [2005 г., триллер, драма, комедия, криминал, HDRip] MVO pb.wtf

Нож гильотины через торрент pb.wtf

Размер: 1.45 GB | Добавлен: 3 года назад | Торрент скачан:18 раз
Скачать  

25-03-2018 13:53 Нож гильотины Скачать торрент  

Нож гильотины / Le couperet
Год выпуска: 2005
Страна: Бельгия, Франция, Испания
Жанр: триллер, драма, комедия, криминал
Продолжительность: 01:57:32
Перевод: Профессиональный (многоголосый)

Режиссер: Коста-Гаврас

rating

В ролях: Хосе Гарсиа, Карин Вьяр, Жорди Монфиль, Криста Тере, Ульрих Тукур, Оливье Гурме, Ивон Бэк, Тьерри Ханчиссе, Ольга Грумберг, Иоланда Моро

Описание: Высококлассный специалист по производству бумаги из вторсырья Брюно Давер был уволен два года назад. Он думал, что сможет легко это пережить. Но время шло, а Брюно так и не удалось забыть свою любимую работу. Тогда он решил, что хочет вновь вернуть ее и готов ради этого на все…

Качество: HDRip
Формат: AVI
Видео: XviD, 1565 Кбит/с, 704x384, 25 Кадр/с
Аудио: AC3, 2 ch, 192 Кбит/с
Релиз от: Koenig
скриншот   скриншот   скриншот   скриншот   скриншот   скриншот  

Общее
Полное имя : Le.Couperet.2005.HDRip.avi
Формат : AVI
Формат/Информация : Audio Video Interleave
Размер файла : 1,45 Гбайт
Продолжительность : 1 ч. 57 м.
Общий поток : 1767 Кбит/сек
Программа кодирования : VirtualDubMod 1.5.10.2 (build 2540/release)
Библиотека кодирования : VirtualDubMod build 2540/release

Видео
Идентификатор : 0
Формат : MPEG-4 Visual
Профиль формата : Advanced Simple@L5
Параметр BVOP формата : 1
Параметр QPel формата : Нет
Параметр GMC формата : Без точки перехода
Параметр матрицы формата : Выборочная
Идентификатор кодека : XVID
Идентификатор кодека/Подсказка : XviD
Продолжительность : 1 ч. 57 м.
Битрейт : 1565 Кбит/сек
Ширина : 704 пикселя
Высота : 384 пикселя
Соотношение сторон : 1,85:1
Частота кадров : 25,000 кадров/сек
Цветовое пространство : YUV
Субдискретизация насыщенности : 4:2:0
Битовая глубина : 8 бит
Тип развёртки : Прогрессивная
Метод сжатия : С потерями
Бит/(Пиксели*Кадры) : 0.232
Размер потока : 1,28 Гбайт (89%)
Библиотека кодирования : XviD 65

Аудио
Идентификатор : 1
Формат : AC-3
Формат/Информация : Audio Coding 3
Параметр Endianness формата : Big
Идентификатор кодека : 2000
Продолжительность : 1 ч. 57 м.
Вид битрейта : Постоянный
Битрейт : 192 Кбит/сек
Каналы : 2 канала
Расположение каналов : Front: L R
Частота : 48,0 КГц
Частота кадров : 31,250 кадров/сек (1536 spf)
Битовая глубина : 16 бит
Метод сжатия : С потерями
Размер потока : 161 Мбайт (11%)
Выравнивание : Разделение по промежуткам
Продолжительность промежутка : 40 мс. (1,00 видеокадр)
Время предзагрузки промежутка : 500 мс.
ServiceKind/String : Complete Main

pb.wtf



Скачать Нож гильотины через торрент http://img12.lostpic.net/2018/03/25/c0aa41c24f292869bde669e0bb2ebf42.jpg Скачать фильм Нож гильотины через торрент бесплантно в хорошем качестве Описание: Высококлассный специалист по производству бумаги из вторсырья Брюно Давер был уволен два года назад. Он думал, что сможет легко ... 10 10 2
Info! Золотая раздача, скачанное не засчитывается.
Торрент: Зарегистрирован [2018-03-25 13:53] · скачан: 18 раз
Статус: √ проверено
Размер: 1.45 GB
Как cкачать? Как скачать Нож гильотины через торрент | UTorrent

28-11-2019 20:33  

Отключить всю рекламу на сайте

10-12-2018 09:12 Нож гильотины Скачать торрент  

Коста - Гаврас большой мастер аккуратно погладить зрителей против шерсти, сохраняя стиль, вкус, манеры и элегантность. В восприятии большинства из нас Франция очень социальная страна в которой противоречия между трудом и капиталом сильно смягчены. И вправду, безработные от голода не умирают, в дырявых лохмотьях не ходят, медицинскую помощь нормального уровня получают. Значит, если у безработного возникают проблемы, он просто не умеет нормально воспринимать жизнь? Сам виноват. Или нет? Конкуренция ведь всегда честная, отбор кандидатов строго объективный. Или не всегда? Трагикомедия великолепно сыграна хорошими артистами, хорошо снята и дает простор для размышлений. Качество рипа и перевод хорошие. Спасибо за раздачу.pb.wtf



    Дорогой пользователь! Огромная просьба, поблагодарите релизера, оцените раздачу и оставьте свои комментарий, если Вы скачали Нож гильотины через торрент бесплатно! Внесите свою лепту в развитие PiratBit!
    Комментировать посты могут только пользователи прошедшие не сложную регистрацию
    Показать сообщения:    

    Нож гильотины через торрент
    Скачать бесплатно Нож гильотины
    Нож гильотины скачать торрент
    Нож гильотины смотреть онлайн
    Cкачать фильм Нож гильотины бесплатно
    Нож гильотины скачать торрент в хорошем качестве
    Нож гильотины смотреть онлайн бесплатно в хорошем качестве


    Вы не можете начинать темы
    Вы не можете отвечать на сообщения
    Вы не можете редактировать свои сообщения
    Вы не можете удалять свои сообщения
    Вы не можете голосовать в опросах
    Вы не можете прикреплять файлы к сообщениям
    Вы можете скачивать файлы