2 сезон

iTunes

MVO

1

2 сезон

iTunes

iTunes

1 сезон

RePack

30

Ultimate

ВАЖНО

ИГРА 18+

pack

RePack

MK11
pack

Легкие деньги

RePack

jed

RePack

fifa19

RePack

RDR2

RePack

NEED FOR SPEED™ PAYBACK

4 сезон

9 сезон

Бесстыжие 9 сезон

Все сериалы

все сериалы на PB.wtf

RePack

FAR CRY 5

Anonymous, доброй ночи, мы не успеваем собрать деньги на оплату серверов за декабрь и январь, помогите нам пожалуйста в это трудное время. В качестве благодарности мы отключим Вам всю рекламу на сайте (укажите свой ник в строку Ваше имя)!

×
  
Magnet ссылка

Затерянный мир / Land of the Lost (Брэд Силберлинг) [2009 г., фэнтези, комедия, приключения, BDRip 720p / 60 FPS, Дубляж, Оригинал] pb.wtf

Затерянный мир через торрент pb.wtf

Раздают: 4 [ 0 KB/s ]
Размер: 10.21 GB | Добавлен: 2 года 9 мес. назад | Торрент скачан:244 раза
Скачать  

25-03-2018 14:34 Затерянный мир Скачать торрент  

Затерянный мир / Land of the Lost
Год выпуска: 2009
Страна: США
Жанр: фэнтези, комедия, приключения
Продолжительность: 01:41:40
Перевод: Дубляж, Оригинал
Субтитры: Русские (полные), Украинские (Полные), Английские (полные)

Режиссер: Брэд Силберлинг

rating

В ролях: Уилл Феррелл, Анна Фрил, Дэнни МакБрайд, Йорма Такконе, Майкл Пападжон, Муса Крэйиш, Поллианна МакИнтош, Ив Мауро, Лэндон Эшуорт, Дуглас Тэйт, Тодд Кристиан Хантер, Моран Атиас

Описание: «Затерянный мир» (Land of the Lost) - альтернативная вселенная, куда могучим вихрем был втянут палеонтолог Рик Маршал, а также научный ассистент Холли и красавчик-гид Вилл. Там они столкнулись с настоящими динозаврами, фантастическими животными и человекоподобными существами. Опасный «Затерянный мир» - место не для слабых. У новоиспеченных первооткрывателей-путешественников нет оружия, только смекалка и несколько навыков выживания. К счастью, им удалось подружиться с «местным жителем» - приматом по имени Чака.

Качество: BDRip 720p / 60 FPS
Формат: MKV
Видео кодек: H.264
Аудио кодек: AC3
Видео: AVC, 1280x688 (1.85:1),13100 kbps, 60.000 fps, 0.248 bpp
Аудио#1: AC3 / 5.1 / 48 kHz / 640 kbps / 16 bit | DUB - Blu-ray CEE
Аудио#2: AC3 / 5.1 / 48 kHz / 640 kbps / 16 bit | Original
General
Unique ID : 59277719408483915489331653360358385699 (0x2C98793645B038F89035C133139DE823)
Complete name : D:\Torrents\Затерянный мир BDRip 720p 60fps.mkv
Format : Matroska
Format version : Version 4 / Version 2
File size : 10.2 GiB
Duration : 1 h 41 min
Overall bit rate : 14.4 Mb/s
Movie name : Затерянный мир 2009 by Tiberiumsun69
Encoded date : UTC 2018-03-21 12:10:04
Writing application : mkvmerge v20.0.0 ('I Am The Sun') 64-bit
Writing library : libebml v1.3.5 + libmatroska v1.4.8

Video
ID : 1
Format : AVC
Format/Info : Advanced Video Codec
Format profile : High@L4.1
Format settings : CABAC / 9 Ref Frames
Format settings, CABAC : Yes
Format settings, ReFrames : 9 frames
Codec ID : V_MPEG4/ISO/AVC
Duration : 1 h 41 min
Bit rate : 13.1 Mb/s
Width : 1 280 pixels
Height : 688 pixels
Display aspect ratio : 1.85:1
Frame rate mode : Constant
Frame rate : 60.000 FPS
Color space : YUV
Chroma subsampling : 4:2:0
Bit depth : 8 bits
Scan type : Progressive
Bits/(Pixel*Frame) : 0.248
Stream size : 9.30 GiB (91%)
Writing library : x264 core 146 r2538 121396c
Encoding settings : cabac=1 / ref=9 / deblock=1:-3:-3 / analyse=0x3:0x133 / me=umh / subme=10 / psy=1 / psy_rd=1.00:0.00 / mixed_ref=1 / me_range=32 / chroma_me=1 / trellis=2 / 8x8dct=1 / cqm=0 / deadzone=21,11 / fast_pskip=0 / chroma_qp_offset=-2 / threads=12 / lookahead_threads=2 / sliced_threads=0 / nr=0 / decimate=1 / interlaced=0 / bluray_compat=0 / constrained_intra=0 / bframes=8 / b_pyramid=2 / b_adapt=2 / b_bias=0 / direct=3 / weightb=1 / open_gop=0 / weightp=2 / keyint=250 / keyint_min=25 / scenecut=40 / intra_refresh=0 / rc_lookahead=60 / rc=crf / mbtree=0 / crf=16.0 / qcomp=0.80 / qpmin=0 / qpmax=69 / qpstep=4 / vbv_maxrate=62500 / vbv_bufsize=78125 / crf_max=0.0 / nal_hrd=none / filler=0 / ip_ratio=1.40 / pb_ratio=1.30 / aq=1:1.00
Language : English
Default : Yes
Forced : No

Audio #1
ID : 2
Format : AC-3
Format/Info : Audio Coding 3
Codec ID : A_AC3
Duration : 1 h 41 min
Bit rate mode : Constant
Bit rate : 640 kb/s
Channel(s) : 6 channels
Channel positions : Front: L C R, Side: L R, LFE
Sampling rate : 48.0 kHz
Frame rate : 31.250 FPS (1536 SPF)
Bit depth : 16 bits
Compression mode : Lossy
Stream size : 465 MiB (4%)
Title : Dub
Language : Russian
Service kind : Complete Main
Default : Yes
Forced : Yes

Audio #2
ID : 3
Format : AC-3
Format/Info : Audio Coding 3
Codec ID : A_AC3
Duration : 1 h 41 min
Bit rate mode : Constant
Bit rate : 640 kb/s
Channel(s) : 6 channels
Channel positions : Front: L C R, Side: L R, LFE
Sampling rate : 48.0 kHz
Frame rate : 31.250 FPS (1536 SPF)
Bit depth : 16 bits
Compression mode : Lossy
Stream size : 465 MiB (4%)
Title : Original
Language : English
Service kind : Complete Main
Default : No
Forced : No

Text #1
ID : 4
Format : UTF-8
Codec ID : S_TEXT/UTF8
Codec ID/Info : UTF-8 Plain Text
Duration : 1 h 36 min
Bit rate : 85 b/s
Count of elements : 1008
Stream size : 60.4 KiB (0%)
Title : Full
Language : Russian
Default : No
Forced : No

Text #2
ID : 5
Format : UTF-8
Codec ID : S_TEXT/UTF8
Codec ID/Info : UTF-8 Plain Text
Duration : 1 h 36 min
Bit rate : 94 b/s
Count of elements : 1023
Stream size : 66.5 KiB (0%)
Title : Full
Language : Ukrainian
Default : No
Forced : No

Text #3
ID : 6
Format : UTF-8
Codec ID : S_TEXT/UTF8
Codec ID/Info : UTF-8 Plain Text
Duration : 1 h 36 min
Bit rate : 74 b/s
Count of elements : 1642
Stream size : 52.2 KiB (0%)
Title : Full
Language : English
Default : No
Forced : No
Просьба к переливающим на другие сайты, в оформлении указывайте пожалуйста авторство группы Ссылка на биткоин кошелек - 1DWGvzWwL9gYLWXkozc7RAoU6KmFnCsWsi Авторская группа в ВК
pb.wtf



Скачать Затерянный мир через торрент http://img12.lostpic.net/2018/03/03/35bfd57af49b93e48add490c050b4d05.jpg Скачать фильм Затерянный мир через торрент бесплантно в хорошем качестве Описание: «Затерянный мир» (Land of the Lost) - альтернативная вселенная, куда могучим вихрем был втянут палеонтолог Рик Маршал, а также ... 8.9 10 11
Info! Золотая раздача, скачанное не засчитывается.
Торрент: Зарегистрирован [2018-03-25 14:34] · скачан: 244 раз
Статус: √ проверено
Размер: 10.21 GB
Как cкачать? Как скачать Затерянный мир через торрент | UTorrent

% Раздел Тема Автор DL S | L
Фильмы 2009 [ 1.78 GB ] Затерянный мир / Land of the Lost [2009 слова HDRip + Оригинал отдельно] 61Rus_Mishka Скачать
1 | 0
Фильмы 2009 [ 1.46 GB ] Затерянный мир / Land of the Lost [2009 HDRip лицензия] Steel Скачать
1 | 0
Фильмы 2009 [ 1.37 GB ] Затерянный мир  / Land of the Lost [2009 DVDRip] DEVI Скачать
1 | 0
Фильмы [HD 720p, 1080p] (Хороший звук DUB, MVO) [ 12.89 GB ] Затерянный мир / Land of the Lost [2009 ... BDRip ] goofy1 Скачать
1 | 0
Фильмы 2009 [ 1.33 GB ] Затерянный мир / Land of the Lost [2009 DVDRip] lehaha Скачать
1 | 0

28-11-2019 20:33  

Отключить всю рекламу на сайте

25-03-2018 14:35 Затерянный мир Скачать торрент  

Всем приятного просмотра.pb.wtf



    Дорогой пользователь! Огромная просьба, поблагодарите релизера, оцените раздачу и оставьте свои комментарий, если Вы скачали Затерянный мир через торрент бесплатно! Внесите свою лепту в развитие PiratBit!
    Комментировать посты могут только пользователи прошедшие не сложную регистрацию
    Показать сообщения:    

    Затерянный мир через торрент
    Скачать бесплатно Затерянный мир
    Затерянный мир скачать торрент
    Затерянный мир смотреть онлайн
    Cкачать фильм Затерянный мир бесплатно
    Затерянный мир скачать торрент в хорошем качестве
    Затерянный мир смотреть онлайн бесплатно в хорошем качестве


    Вы не можете начинать темы
    Вы не можете отвечать на сообщения
    Вы не можете редактировать свои сообщения
    Вы не можете удалять свои сообщения
    Вы не можете голосовать в опросах
    Вы не можете прикреплять файлы к сообщениям
    Вы можете скачивать файлы