Ссылка на приватное зеркало нашего сайта всего за 1$. Внимание количество ограничено!!!

2 сезон

iTunes

1 сезон

1

2 сезон

2 сезон

iTunes

1 сезон

RePack

30

Ultimate

ВАЖНО

ИГРА 18+

pack

RePack

MK11
pack

Забери бонус

RePack

jed

!!Акция!!

Alien_Rage

RePack

fifa19

RePack

Assassins Creed: Odyssey

RePack

NEED FOR SPEED™ PAYBACK

4 сезон

9 сезон

Бесстыжие 9 сезон

Все сериалы

все сериалы на PB.wtf

RePack

FAR CRY 5
  

Барри / Barry / Сезон: 1 / Серии: 1-8 из 8 (Билл Хейдер, Алек Берг, Мэгги Кэри) [2018, Комедия, WEB-DL 720p] MVO [Амедиа] pb.wtf

Барри через торрент pb.wtf

Размер: 5.22 GB | Добавлен: 2 года 6 мес. назад | Торрент скачан:64 раза
Скачать  

26-03-2018 10:33 Барри Скачать торрент  

Барри / BarryГод выпуска: 2018
Страна: США
Жанр: Комедия
Продолжительность: ~00:30:36
Перевод: Профессиональный многоголосый | Amedia
Субтитры: отсутствуют

Режиссер: Билл Хейдер, Алек Берг, Мэгги Кэри

rating

В ролях:

Билл Хейдер, Генри Уинклер, Стивен Рут, Сара Голдберг, Гленн Флешлер, Энтони Кэрриган, Даррел Бритт-Гибсон, Энди Кэри, Алехандро Ферт, Паула Ньюсом

Описание:

Барри — бывший морпех со Среднего Запада, а ныне никудышный киллер. Одинокий и неприкаянный, однажды он отправляется на заказ в Лос-Анджелес, где по воле случая оказывается на курсах актерского мастерства. Вдохновившись творческой атмосферой, Барри немедля решает стать актером и перезапустить свою жизнь.

Качество: WEB-DL 720p
Формат: MKV

Видео: MPEG-4 AVC, ~ 2700 Кбит/с, 1280x720
Аудио#1: Русский (AC3, 2 ch, 192 Кбит/с)
Аудио#2: английский (AC3, 2 ch, 192 Кбит/с)
скриншот  скриншот  скриншот  

Общее
Уникальный идентификатор : 180013412018111253584970549978782164614 (0x876D52728125D20D80E9D7854152E686)
Полное имя : D:\Barry (Season 01) 720\6app1.S01E01.720p.AMEDIA.mkv
Формат : Matroska
Версия формата : Version 4 / Version 2
Размер файла : 668 Мбайт
Продолжительность : 30 м. 19 с.
Режим общего битрейта : Переменный
Общий поток : 3078 Кбит/сек
Дата кодирования : UTC 2018-03-26 09:33:48
Программа кодирования : mkvmerge v8.3.0 ('Over the Horizon') 64bit
Библиотека кодирования : libebml v1.3.1 + libmatroska v1.4.2

Видео
Идентификатор : 1
Формат : AVC
Формат/Информация : Advanced Video Codec
Профиль формата : Main@L3.2
Параметр CABAC формата : Да
Параметр RefFrames формата : 4 кадра
Параметр GOP формата : M=3, N=72
Идентификатор кодека : V_MPEG4/ISO/AVC
Продолжительность : 30 м. 19 с.
Вид битрейта : Переменный
Битрейт : 2692 Кбит/сек
Максимальный битрейт : 3510 Кбит/сек
Ширина : 1280 пикселей
Высота : 720 пикселей
Соотношение сторон : 16:9
Режим частоты кадров : Постоянный
Частота кадров : 23,976 (24000/1001) кадра/сек
Цветовое пространство : YUV
Субдискретизация насыщенности : 4:2:0
Битовая глубина : 8 бит
Тип развёртки : Прогрессивная
Бит/(Пиксели*Кадры) : 0.122
Размер потока : 584 Мбайт (87%)
Язык : English
Default : Да
Forced : Нет

Аудио #1
Идентификатор : 2
Формат : AC-3
Формат/Информация : Audio Coding 3
Расширение режима : CM (complete main)
Параметр Endianness формата : Big
Идентификатор кодека : A_AC3
Продолжительность : 30 м. 19 с.
Вид битрейта : Постоянный
Битрейт : 192 Кбит/сек
Каналы : 2 канала
Расположение каналов : Front: L R
Частота : 48,0 КГц
Частота кадров : 31,250 кадров/сек (1536 spf)
Метод сжатия : С потерями
Размер потока : 41,6 Мбайт (6%)
Язык : Russian
Default : Да
Forced : Нет

Аудио #2
Идентификатор : 3
Формат : AC-3
Формат/Информация : Audio Coding 3
Расширение режима : CM (complete main)
Параметр Endianness формата : Big
Идентификатор кодека : A_AC3
Продолжительность : 30 м. 19 с.
Вид битрейта : Постоянный
Битрейт : 192 Кбит/сек
Каналы : 2 канала
Расположение каналов : Front: L R
Частота : 48,0 КГц
Частота кадров : 31,250 кадров/сек (1536 spf)
Метод сжатия : С потерями
Задержка видео : 4 мс.
Размер потока : 41,7 Мбайт (6%)
Язык : English
Default : Нет
Forced : Нет

Когда раздача ведётся путём добавления новых серий, при каждом добавлении создётся новый торрент. Чтобы начать докачку новой серии, пользователям необходимо сделать следующее:
(1) остановить скачивание,
(2) удалить старый торрент у себя из клиента (старые серии удалять не надо),
(3) скачать новый торрент и запустить его у себя в клиенте вместо старого, при этом указать клиенту путь в старую папку, куда и должно происходить скачивание новых серий.
Ваш клиент при этом должен произвести хеширование (проверку) старой папки (если не производит сам - помогите ему сделать это), и будет докачивать только те серии, которых у вас ещё нет. Старые серии при этом не удаляются, а продолжают раздаваться!
Eсли вы уже удалили старые серии, то предотвратить повторную закачку старых серий можно, отжав галочку в соответсвующих местах при запуске нового торрента. По возможности, желательно не удалять старые серии как можно дольше, чтобы релизёр не столько продолжал раздавать старые серии, а смог сконцентрироваться на новых.
pb.wtf



Скачать Барри через торрент https://d.radikal.ru/d31/1803/3b/b6554d58631b.jpg Скачать фильм Барри через торрент бесплантно в хорошем качестве Описание: Барри — бывший морпех со Среднего Запада, а ныне никудышный киллер. Одинокий и неприкаянный, однажды он отправляется на заказ в ... 8.4 10 7
Торрент: Зарегистрирован [2018-05-17 17:47] · скачан: 64 раз
Статус: √ проверено
Размер: 5.22 GB
Как cкачать? Как скачать Барри через торрент | qTorrent

% Раздел Тема Автор DL S | L
Зарубежные сериалы [ 17.09 GB ] Барри / Barry / Сезон: 2 / Серии: 1-8 из 8 [2019 WEB-DL 1080p] MVO [TVShows] bober100 Скачать
1 | 0
Зарубежные сериалы [ 7.43 GB ] Барри / Barry / Сезон: 2 / Серии: 1-8 из 8 [2019 WEB-DL 720p] [MVO] killermax2013 Скачать
1 | 0
Зарубежные сериалы [ 16.86 GB ] Барри / Barry / Сезон: 2 / Серии: 1-8 из 8 [2019 WEB-DL 1080p] [MVO] killermax2013 Скачать
1 | 0
Зарубежные сериалы [ 4.72 GB ] Барри / Barry / Сезон: 1 / Серии: 1-8 из 8 [2018 WEB-DLRip] MVO [NewStudio] bober100 Скачать
1 | 0
Зарубежные сериалы [ 5.51 GB ] Барри / Barry / Сезон: 1 / Серии: 1-8 из 8 [2018 WEB-DL 720p] MVO [NewStudio] bober100 Скачать
1 | 0
Зарубежные сериалы [ 5.06 GB ] Барри / Barry / Сезон: 1 / Серии: 1-8 из 8 [2018 WEB-DL 720p] MVO [Jaskier] bober100 Скачать
1 | 0
Зарубежные сериалы [ 3.04 GB ] Барри / Barry / Сезон: 1 / Серии: 1-8 из 8 [2018 WEB-DLRip] MVO [Jaskier] bober100 Скачать
1 | 0

28-11-2019 20:33  

Отключить всю рекламу на сайте

    Дорогой пользователь! Огромная просьба, поблагодарите релизера, оцените раздачу и оставьте свои комментарий, если Вы скачали Барри через торрент бесплатно! Внесите свою лепту в развитие PiratBit!
    Комментировать посты могут только пользователи прошедшие не сложную регистрацию
    Показать сообщения:    

    Барри через торрент
    Скачать бесплатно Барри
    Барри скачать торрент
    Барри смотреть онлайн
    Cкачать фильм Барри бесплатно
    Барри скачать торрент в хорошем качестве
    Барри смотреть онлайн бесплатно в хорошем качестве


    Вы не можете начинать темы
    Вы не можете отвечать на сообщения
    Вы не можете редактировать свои сообщения
    Вы не можете удалять свои сообщения
    Вы не можете голосовать в опросах
    Вы не можете прикреплять файлы к сообщениям
    Вы можете скачивать файлы