Ссылка на приватное зеркало нашего сайта всего за 1$. Внимание количество ограничено!!!

2 сезон

iTunes

1 сезон

1

2 сезон

2 сезон

iTunes

1 сезон

RePack

30

Ultimate

ВАЖНО

ИГРА 18+

pack

RePack

MK11
pack

Забери бонус

RePack

jed

!!Акция!!

Alien_Rage

RePack

fifa19

RePack

Assassins Creed: Odyssey

RePack

NEED FOR SPEED™ PAYBACK

4 сезон

9 сезон

Бесстыжие 9 сезон

Все сериалы

все сериалы на PB.wtf

RePack

FAR CRY 5
  

Кремниевая долина / Силиконовая долина / Silicon Valley / Сезон: 5 / Серии: 1-8 из 8 (Майк Джадж, Алек Берг, Тришиа Брок) [2018, Комедия, WEB-DLRip] MVO [Амедиа] pb.wtf

Кремниевая долина через торрент pb.wtf

Размер: 3.03 GB | Добавлен: 1 год 7 мес. назад | Торрент скачан:45 раз
Скачать  

26-03-2018 11:06 Кремниевая долина Скачать торрент  

Кремниевая долина / Силиконовая долина / Silicon Valley
Год выпуска: 2018
Страна: США
Жанр: Комедия
Продолжительность: ~ 00:30:00
Перевод: Профессиональный многоголосый | Amedia
Субтитры: Русские (Amedia), английские

Режиссер: Майк Джадж, Алек Берг, Тришиа Брок

rating


В ролях:

Томас Миддлдитч, ТиДжей Миллер, Джош Бренер, Мартин Старр, Кумэйл Нанджиани, Али Моджи, Аманда Крю, Зак Вудс, Кристофер Ивэн Уэлш, Мэтт Росс

Описание:

Жизнь в Силиконовой долине – жестокая борьба за место под калифорнийским солнцем. Каждый здесь мечтает стать новым Джобсом. Шестеро молодых айтишников пытаются придумать прорывный стартап, который принесет им славу и деньги. Но великие изобретатели беспомощны в повседневной жизни, а толковые прагматики не могут справиться со звездной болезнью. Создатель шоу Майк Джадж, автор «Бивиса и Баттхеда», знает, как превратить эти гиковские сложности в комедию.

Качество: WEB-DLRip
Формат: AVI

Видео: XviD, 720x400, 23,976 fps, ~1500 kbps
Аудио Rus: MP3, 48 kHz, 2 ch, 128 kbps | Amedia
Аудио Eng: MP3, 48 kHz, 2 ch, 128 kbps
скриншот  скриншот  скриншот  скриншот  

Общее
Полное имя : E:\Silicon Valley (Season 5)\Silicon.Valley.S05E01.Grow.Fast.or.Die.Slow.WEB-DLRip.[Wentworth_Miller].avi
Формат : AVI
Формат/Информация : Audio Video Interleave
Размер файла : 403 Мбайт
Продолжительность : 31 м. 50 с.
Общий поток : 1770 Кбит/сек
Программа кодирования : VirtualDubMod 1.5.10.2 (build 2540/release)
Библиотека кодирования : VirtualDubMod build 2540/release

Видео
Идентификатор : 0
Формат : MPEG-4 Visual
Профиль формата : Advanced Simple@L5
Настройки формата : BVOP1
Параметр BVOP формата : 1
Параметр QPel формата : Нет
Параметр GMC формата : Без точки перехода
Параметр матрицы формата : Default (MPEG)
Идентификатор кодека : XVID
Идентификатор кодека/Подсказка : XviD
Продолжительность : 31 м. 50 с.
Битрейт : 1500 Кбит/сек
Ширина : 720 пикселей
Высота : 400 пикселей
Соотношение сторон : 16:9
Частота кадров : 23,976 (24000/1001) кадра/сек
Цветовое пространство : YUV
Субдискретизация насыщенности : 4:2:0
Битовая глубина : 8 бит
Тип развёртки : Прогрессивная
Метод сжатия : С потерями
Бит/(Пиксели*Кадры) : 0.217
Размер потока : 342 Мбайт (85%)
Библиотека кодирования : XviD 61

Аудио #1
Идентификатор : 1
Формат : MPEG Audio
Версия формата : Version 1
Профиль формата : Layer 3
Идентификатор кодека : 55
Идентификатор кодека/Подсказка : MP3
Продолжительность : 31 м. 50 с.
Вид битрейта : Постоянный
Битрейт : 128 Кбит/сек
Каналы : 2 канала
Частота : 48,0 КГц
Частота кадров : 41,667 кадра/сек (1152 SPF)
Метод сжатия : С потерями
Размер потока : 29,2 Мбайт (7%)
Выравнивание : Соединение по промежуткам
Продолжительность промежутка : 42 мс. (1,00 видеокадр)
Время предзагрузки промежутка : 504 мс.
Библиотека кодирования : LAME3.98r
Настройки программы : -m s -V 4 -q 2 -lowpass 17 -b 128

Аудио #2
Идентификатор : 2
Формат : MPEG Audio
Версия формата : Version 1
Профиль формата : Layer 3
Настройки формата : Joint stereo / MS Stereo
Идентификатор кодека : 55
Идентификатор кодека/Подсказка : MP3
Продолжительность : 31 м. 50 с.
Вид битрейта : Постоянный
Битрейт : 128 Кбит/сек
Каналы : 2 канала
Частота : 48,0 КГц
Метод сжатия : С потерями
Размер потока : 29,2 Мбайт (7%)
Выравнивание : Соединение по промежуткам
Продолжительность промежутка : 42 мс. (1,00 видеокадр)
Время предзагрузки промежутка : 504 мс.
Библиотека кодирования : LAME3.97

Когда раздача ведётся путём добавления новых серий, при каждом добавлении создётся новый торрент. Чтобы начать докачку новой серии, пользователям необходимо сделать следующее:
(1) остановить скачивание,
(2) удалить старый торрент у себя из клиента (старые серии удалять не надо),
(3) скачать новый торрент и запустить его у себя в клиенте вместо старого, при этом указать клиенту путь в старую папку, куда и должно происходить скачивание новых серий.
Ваш клиент при этом должен произвести хеширование (проверку) старой папки (если не производит сам - помогите ему сделать это), и будет докачивать только те серии, которых у вас ещё нет. Старые серии при этом не удаляются, а продолжают раздаваться!
Eсли вы уже удалили старые серии, то предотвратить повторную закачку старых серий можно, отжав галочку в соответсвующих местах при запуске нового торрента. По возможности, желательно не удалять старые серии как можно дольше, чтобы релизёр не столько продолжал раздавать старые серии, а смог сконцентрироваться на новых.
pb.wtf



Скачать Кремниевая долина через торрент https://a.radikal.ru/a09/1904/29/5b612cd76503.png Скачать фильм Кремниевая долина через торрент бесплантно в хорошем качестве Описание: Жизнь в Силиконовой долине – жестокая борьба за место под калифорнийским солнцем. Каждый здесь мечтает стать новым Джобсом. ... 7.3 10 3
Торрент: Зарегистрирован [2019-04-08 05:27] · скачан: 45 раз
Статус: √ проверено
Размер: 3.03 GB
Как cкачать? Как скачать Кремниевая долина через торрент | qTorrent

% Раздел Тема Автор DL S | L
Зарубежные сериалы [ 12.91 GB ] Кремниевая долина / Силиконовая долина / Silicon Valley / Сезон: 5 / Серии: 1-8 из 8 [2017 WEB-DL 1080p] [MVO] killermax2013 Скачать
1 | 0
Зарубежные сериалы [ 13.7 GB ] Кремниевая долина / Силиконовая долина / Silicon Valley / Сезон: 5 / Серии: 1-8 из 8 [2018 WEB-DL 1080p] DVO [Кубик в кубе] bober100 Скачать
3 | 0
Зарубежные сериалы [ 2.83 GB ] Кремниевая долина / Силиконовая долина / Silicon Valley / Сезон: 5 / Серии: 1-8 из 8 [2018 HDTVRip] DVO [SunshineStudio] bober100 Скачать
1 | 0
Зарубежные сериалы [ 3.13 GB ] Кремниевая долина / Силиконовая долина / Silicon Valley / Сезон: 5 / Серии: 1-8 из 8 [2017 WEB-DLRip] [MVO] killermax2013 Скачать
1 | 0
Зарубежные сериалы [ 13.8 GB ] Кремниевая долина / Силиконовая долина / Silicon Valley / Сезон: 5 / Серии: 1-8 из 8 [2018 WEB-DL 1080p] MVO [Амедиа] bober100 Скачать
1 | 0

28-11-2019 20:33  

Отключить всю рекламу на сайте

    Дорогой пользователь! Огромная просьба, поблагодарите релизера, оцените раздачу и оставьте свои комментарий, если Вы скачали Кремниевая долина через торрент бесплатно! Внесите свою лепту в развитие PiratBit!
    Комментировать посты могут только пользователи прошедшие не сложную регистрацию
    Показать сообщения:    

    Кремниевая долина через торрент
    Скачать бесплатно Кремниевая долина
    Кремниевая долина скачать торрент
    Кремниевая долина смотреть онлайн
    Cкачать фильм Кремниевая долина бесплатно
    Кремниевая долина скачать торрент в хорошем качестве
    Кремниевая долина смотреть онлайн бесплатно в хорошем качестве


    Вы не можете начинать темы
    Вы не можете отвечать на сообщения
    Вы не можете редактировать свои сообщения
    Вы не можете удалять свои сообщения
    Вы не можете голосовать в опросах
    Вы не можете прикреплять файлы к сообщениям
    Вы можете скачивать файлы