Ссылка на приватное зеркало нашего сайта всего за 1$. Внимание количество ограничено!!!

2 сезон

iTunes

1 сезон

1

2 сезон

2 сезон

iTunes

1 сезон

RePack

30

Новинка

ВАЖНО

ИГРА 18+

pack

RePack

MK11
pack

Забери бонус

RePack

jed

!!Акция!!

Alien_Rage

RePack

fifa19

RePack

Assassins Creed: Odyssey

RePack

NEED FOR SPEED™ PAYBACK

4 сезон

9 сезон

Бесстыжие 9 сезон

Все сериалы

все сериалы на PB.wtf

RePack

FAR CRY 5
  

Кремниевая долина / Силиконовая долина / Silicon Valley / Сезон: 5 / Серии: 1-8 из 8 (Майк Джадж, Алек Берг, Тришиа Брок) [2018, Комедия, WEB-DL 1080p] MVO [Амедиа] pb.wtf

Кремниевая долина через торрент pb.wtf

Размер: 13.8 GB | Добавлен: 1 год 7 мес. назад | Торрент скачан:24 раза
Скачать  

26-03-2018 11:25 Кремниевая долина Скачать торрент  

Кремниевая долина / Силиконовая долина / Silicon Valley
Год выпуска: 2018
Страна: США
Жанр: Комедия
Продолжительность: ~ 00:30:00
Перевод: Профессиональный многоголосый | Amedia
Субтитры: Английские

Режиссер: Майк Джадж, Алек Берг, Тришиа Брок

rating


В ролях:

Томас Миддлдитч, ТиДжей Миллер, Джош Бренер, Мартин Старр, Кумэйл Нанджиани, Али Моджи, Аманда Крю, Зак Вудс, Кристофер Ивэн Уэлш, Мэтт Росс

Описание:

Жизнь в Силиконовой долине – жестокая борьба за место под калифорнийским солнцем. Каждый здесь мечтает стать новым Джобсом. Шестеро молодых айтишников пытаются придумать прорывный стартап, который принесет им славу и деньги. Но великие изобретатели беспомощны в повседневной жизни, а толковые прагматики не могут справиться со звездной болезнью. Создатель шоу Майк Джадж, автор «Бивиса и Баттхеда», знает, как превратить эти гиковские сложности в комедию.

Качество: WEB-DL 1080p
Формат: MKV

Видео: ~7000 kbps, 1920x1080 (16:9), 23.976 fps
Аудио#1 RUS: AC3, 48 KHz, 2 ch, 192 kbps
Аудио#2 ENG: E-AC3, 48 KHz, 6 ch, 640 kbps
скриншот  скриншот  скриншот  скриншот  

General
Unique ID : 228701666993022007709943567568856881586 (0xAC0E56C0CB727EC5A57FEA644F9F19B2)
Complete name : E:\Torrent\Silicon.Valley.S05.1080p.AMZN.WEB-DL.H.264-Amedia\Silicon.Valley.S05E01.Grow.Fast.or.Die.Slow.1080p.AMZN.WEB-DL.H.264-Amedia.mkv
Format : Matroska
Format version : Version 4 / Version 2
File size : 1.81 GiB
Duration : 31 min 50 s
Overall bit rate mode : Variable
Overall bit rate : 8 117 kb/s
Encoded date : UTC 2018-04-21 14:18:30
Writing application : mkvmerge v18.0.0 ('Apricity') 64-bit
Writing library : libebml v1.3.5 + libmatroska v1.4.8
Cover : Yes
Attachments : cover.silicon.jpg

Video
ID : 1
Format : AVC
Format/Info : Advanced Video Codec
Format profile : High@L4
Format settings : CABAC / 4 Ref Frames
Format settings, CABAC : Yes
Format settings, RefFrames : 4 frames
Codec ID : V_MPEG4/ISO/AVC
Duration : 31 min 50 s
Bit rate mode : Variable
Bit rate : 7 282 kb/s
Maximum bit rate : 15.0 Mb/s
Width : 1 920 pixels
Height : 1 080 pixels
Display aspect ratio : 16:9
Frame rate mode : Constant
Frame rate : 23.976 (24000/1001) FPS
Color space : YUV
Chroma subsampling : 4:2:0
Bit depth : 8 bits
Scan type : Progressive
Bits/(Pixel*Frame) : 0.146
Stream size : 1.62 GiB (90%)
Language : English
Default : Yes
Forced : No
Color range : Limited
Color primaries : BT.709
Transfer characteristics : BT.709
Matrix coefficients : BT.709

Audio #1
ID : 2
Format : AC-3
Format/Info : Audio Coding 3
Codec ID : A_AC3
Duration : 31 min 50 s
Bit rate mode : Constant
Bit rate : 192 kb/s
Channel(s) : 2 channels
Channel positions : Front: L R
Sampling rate : 48.0 kHz
Frame rate : 31.250 FPS (1536 SPF)
Bit depth : 16 bits
Compression mode : Lossy
Stream size : 43.7 MiB (2%)
Language : Russian
Service kind : Complete Main
Default : Yes
Forced : No

Audio #2
ID : 3
Format : E-AC-3
Format/Info : Enhanced Audio Coding 3
Codec ID : A_EAC3
Duration : 31 min 50 s
Bit rate mode : Constant
Bit rate : 640 kb/s
Channel(s) : 6 channels
Channel positions : Front: L C R, Side: L R, LFE
Sampling rate : 48.0 kHz
Frame rate : 187.500 FPS (256 SPF)
Compression mode : Lossy
Delay relative to video : 5 ms
Stream size : 146 MiB (8%)
Language : English
Service kind : Complete Main
Default : No
Forced : No

Text #1
ID : 4
Format : UTF-8
Codec ID : S_TEXT/UTF8
Codec ID/Info : UTF-8 Plain Text
Duration : 31 min 39 s
Bit rate : 103 b/s
Count of elements : 645
Stream size : 24.0 KiB (0%)
Language : English
Default : No
Forced : No

Text #2
ID : 5
Format : UTF-8
Codec ID : S_TEXT/UTF8
Codec ID/Info : UTF-8 Plain Text
Duration : 31 min 39 s
Bit rate : 108 b/s
Count of elements : 663
Stream size : 25.1 KiB (0%)
Title : SDH
Language : English
Default : No
Forced : No

Menu
00:00:00.000 : en:TV Rating
00:00:03.629 : en:Previously On
00:01:43.629 : en:Studio Logo
00:01:49.629 : en:Pied Piper moves into their new office space
00:05:16.629 : en:Title Sequence
00:05:26.629 : en:Dinesh and Bertram can't agree on who to hire
00:07:39.629 : en:Richard attends Gavin's gala
00:10:21.629 : en:Pied Piper attempts to buy out another company
00:13:39.629 : en:Dinesh and Gilfoyle return home
00:14:37.629 : en:Gavin speaks to the new hires
00:16:59.629 : en:Jian tries to take control of the house
00:18:53.629 : en:Richard looses out on more employees
00:21:17.629 : en:Gavin looks at the Box pre-order numbers
00:23:05.629 : en:Sliceline has a huge problem
00:26:28.629 : en:Richard meets with Monica and Laurie
00:28:07.629 : en:Richard gives a speech to his new coders
00:30:03.629 : en:End Credits
00:31:13.629 : en:On the next episode

Когда раздача ведётся путём добавления новых серий, при каждом добавлении создётся новый торрент. Чтобы начать докачку новой серии, пользователям необходимо сделать следующее:
(1) остановить скачивание,
(2) удалить старый торрент у себя из клиента (старые серии удалять не надо),
(3) скачать новый торрент и запустить его у себя в клиенте вместо старого, при этом указать клиенту путь в старую папку, куда и должно происходить скачивание новых серий.
Ваш клиент при этом должен произвести хеширование (проверку) старой папки (если не производит сам - помогите ему сделать это), и будет докачивать только те серии, которых у вас ещё нет. Старые серии при этом не удаляются, а продолжают раздаваться!
Eсли вы уже удалили старые серии, то предотвратить повторную закачку старых серий можно, отжав галочку в соответсвующих местах при запуске нового торрента. По возможности, желательно не удалять старые серии как можно дольше, чтобы релизёр не столько продолжал раздавать старые серии, а смог сконцентрироваться на новых.
pb.wtf



Скачать Кремниевая долина через торрент https://a.radikal.ru/a09/1904/29/5b612cd76503.png Скачать фильм Кремниевая долина через торрент бесплантно в хорошем качестве Описание: Жизнь в Силиконовой долине – жестокая борьба за место под калифорнийским солнцем. Каждый здесь мечтает стать новым Джобсом. ... 10 10 4
Торрент: Зарегистрирован [2019-04-08 05:27] · скачан: 24 раз
Статус: √ проверено
Размер: 13.8 GB
Как cкачать? Как скачать Кремниевая долина через торрент | qTorrent

% Раздел Тема Автор DL S | L
Зарубежные сериалы [ 12.91 GB ] Кремниевая долина / Силиконовая долина / Silicon Valley / Сезон: 5 / Серии: 1-8 из 8 [2017 WEB-DL 1080p] [MVO] killermax2013 Скачать
1 | 0
Зарубежные сериалы [ 13.7 GB ] Кремниевая долина / Силиконовая долина / Silicon Valley / Сезон: 5 / Серии: 1-8 из 8 [2018 WEB-DL 1080p] DVO [Кубик в кубе] bober100 Скачать
2 | 1
Зарубежные сериалы [ 2.83 GB ] Кремниевая долина / Силиконовая долина / Silicon Valley / Сезон: 5 / Серии: 1-8 из 8 [2018 HDTVRip] DVO [SunshineStudio] bober100 Скачать
1 | 0
Зарубежные сериалы [ 3.13 GB ] Кремниевая долина / Силиконовая долина / Silicon Valley / Сезон: 5 / Серии: 1-8 из 8 [2017 WEB-DLRip] [MVO] killermax2013 Скачать
1 | 0
Зарубежные сериалы [ 3.03 GB ] Кремниевая долина / Силиконовая долина / Silicon Valley / Сезон: 5 / Серии: 1-8 из 8 [2018 WEB-DLRip] MVO [Амедиа] bober100 Скачать
1 | 0


Последний раз редактировалось: bober100 (2019-04-08 05:40), всего редактировалось 5 раз(а)

28-11-2019 20:33  

Отключить всю рекламу на сайте

26-03-2018 16:36 Кремниевая долина Скачать торрент  

Озвучка - говнище! Буду ждать Кубик в кубе... Бобру пасиб..pb.wtf



24-04-2018 19:15 Кремниевая долина Скачать торрент  

LeeH@N писал(а):

Озвучка - говнище! Буду ждать Кубик в кубе... Бобру пасиб..

к сожалению ты прав. но кубиков не жди. все что принадлежит амедии кубики больше не переводятpb.wtf



25-04-2018 19:47 Кремниевая долина Скачать торрент  

вторая серия без переводаpb.wtf



    Дорогой пользователь! Огромная просьба, поблагодарите релизера, оцените раздачу и оставьте свои комментарий, если Вы скачали Кремниевая долина через торрент бесплатно! Внесите свою лепту в развитие PiratBit!
    Комментировать посты могут только пользователи прошедшие не сложную регистрацию
    Показать сообщения:    

    Кремниевая долина через торрент
    Скачать бесплатно Кремниевая долина
    Кремниевая долина скачать торрент
    Кремниевая долина смотреть онлайн
    Cкачать фильм Кремниевая долина бесплатно
    Кремниевая долина скачать торрент в хорошем качестве
    Кремниевая долина смотреть онлайн бесплатно в хорошем качестве


    Вы не можете начинать темы
    Вы не можете отвечать на сообщения
    Вы не можете редактировать свои сообщения
    Вы не можете удалять свои сообщения
    Вы не можете голосовать в опросах
    Вы не можете прикреплять файлы к сообщениям
    Вы можете скачивать файлы