Ссылка на приватное зеркало нашего сайта всего за 1$. Внимание количество ограничено!!!

2 сезон

iTunes

1 сезон

1

iTunes

iTunes

iTunes

1 сезон

RePack

30

ИГРА 18+

pack

ВАЖНО

!!Акция!!

Alien_RageХит недели

RePack

MK11
pack

Забери бонус

RePack

jed

!!Акция!!

Alien_Rage

RePack

fifa19

RePack

Assassins Creed: Odyssey

RePack

NEED FOR SPEED™ PAYBACK

4 сезон

9 сезон

Бесстыжие 9 сезон

Все сериалы

все сериалы на PB.wtf

RePack

FAR CRY 5
  

Одна жизнь на двоих / Серия 1-16 из 16 (Рауф Кубаев) [2018 г., Семейная сага, SATRip] pb.wtf

Одна жизнь на двоих через торрент pb.wtf

Размер: 10.89 GB | Добавлен: 2 года 6 мес. назад | Торрент скачан:26 раз
Скачать  

26-03-2018 11:45 Одна жизнь на двоих Скачать торрент  

Одна жизнь на двоих / Серия 1-16 из 16
Год выпуска: 2018
Страна: Россия
Жанр: Семейная сага
Продолжительность: 16 х 00:50:00
Субтитры: нет

Режиссер: Рауф Кубаев

В ролях: Артём Крылов, Алиса Лозовская, Екатерина Панасюк, Анна Каменкова, Татьяна Лютаева, Александр Зельский, Борис Чистяков, Константин Воробьёв, Сергей Паршин, Виктория Малекторович, Егор Кутенков, Анастасия Чистякова, Анна Лапина, Анна Карелина, Юлия Марченко, Вячеслав Савицкий, Алла Еминцева, Юрий Елагин, Егор Бакулин, Светлана Бакулина, Виталий Олечкин

Описание: По бестселлеру Анны и Сергея Литвиновых «Черно-белый танец».

История любви, существующей вопреки всему. История предательства и прощения. Три судьбы сплелись в роковой треугольник перед второй мировой, которая растоптала и уничтожила все их планы и надежды. Чувства пережили страшную войну и разлуку, но стали лишь сильней. Настолько, что снова и снова повторяются: и в следующем поколении, и даже в благополучной эпохе 80-х, когда уже не дети, а внуки вынуждены испытать на себе и любовь, и ненависть длиной в полвека, чтобы понять, каково это — прожить «Одну жизнь на двоих».

История начинается в 1941-м году и завершается в 1980-е, охватывая четыре драматические эпохи в жизни страны: внешне благополучную предвоенную жизнь с пугающей изнанкой репрессий и доносов, страшную войну, послевоенную разруху и спокойное двадцатилетие 60-80-х.

Качество: SATRip
Формат: AVI
Видео кодек: XviD
Аудио кодек: MP3
Видео: XviD, 1800 Кбит/с, 720x400
Аудио#1: МР3, 2 ch, 128 Кбит/с
скриншот   скриншот   скриншот   скриншот  

General
Complete name : H:\релизы.торрентфайл\Odna.zhizn.na.dvoih.01.SATRip.[www.riperam.org].avi
Format : AVI
Format/Info : Audio Video Interleave
File size : 699 MiB
Duration : 50mn 26s
Overall bit rate : 1 937 Kbps
Writing application : VirtualDubMod 1.5.10.3 (build 2550/release)
Writing library : VirtualDubMod build 2550/release

Video
ID : 0
Format : MPEG-4 Visual
Format profile : Advanced Simple@L5
Format settings, BVOP : 2
Format settings, QPel : No
Format settings, GMC : No warppoints
Format settings, Matrix : Default (H.263)
Codec ID : XVID
Codec ID/Hint : XviD
Duration : 50mn 26s
Bit rate : 1 800 Kbps
Width : 720 pixels
Height : 400 pixels
Display aspect ratio : 16:9
Frame rate : 25.000 fps
Color space : YUV
Chroma subsampling : 4:2:0
Bit depth : 8 bits
Scan type : Progressive
Compression mode : Lossy
Bits/(Pixel*Frame) : 0.250
Stream size : 649 MiB (93%)
Writing library : XviD 1.2.1 (UTC 2008-12-04)

Audio
ID : 1
Format : MPEG Audio
Format version : Version 1
Format profile : Layer 3
Codec ID : 55
Codec ID/Hint : MP3
Duration : 50mn 26s
Bit rate mode : Constant
Bit rate : 128 Kbps
Channel(s) : 2 channels
Sampling rate : 48.0 KHz
Compression mode : Lossy
Stream size : 46.2 MiB (7%)
Alignment : Aligned on interleaves
Interleave, duration : 40 ms (1.00 video frame)
Interleave, preload duration : 504 ms
Writing library : LAME3.99r
Encoding settings : -m s -V 4 -q 2 -lowpass 17 -b 128

Внимание! Раздача ведётся путём добавления новых серий; при каждом добавлении создётся новый торрент. Чтобы начать докачку новой серии, пользователям необходимо сделать следующее:
  • Остановить скачивание,
  • Удалить старый торрент у себя из клиента (старые серии удалять не надо),
  • Скачать новый торрент и запустить его у себя в клиенте вместо старого, при этом указать клиенту путь в старую папку куда и должно происходить скачивание новых серий.
Ваш клиент при этом должен произвести хеширование (проверку) старой папки (если не производит сам - помогите ему сделать это), и будет докачивать только те серии которых у вас ещё нет. Старые серии при этом не удаляются, а продолжают раздаваться!

Eсли вы уже удалили старые серии, то предотвратить повторную закачку старых серий можно, отжав галочку в соответсвующих местах при запуске нового торрента. По возможности, желательно не удалять старые серии как можно дольше чтобы релизёр не столько продолжал раздавать старые серии, а смог сконцентрироваться на новых.
pb.wtf



Скачать Одна жизнь на двоих через торрент https://i99.fastpic.ru/big/2018/0326/c1/9ba66b379fd1112924b9065a4de960c1.jpg Скачать фильм Одна жизнь на двоих через торрент бесплантно в хорошем качестве Описание: По бестселлеру Анны и Сергея Литвиновых «Черно-белый танец».История любви, существующей вопреки всему. История предательства и ... 10 10 4
Торрент: Зарегистрирован [2018-04-05 13:13] · скачан: 26 раз
Статус: √ проверено
Размер: 10.89 GB
Как cкачать? Как скачать Одна жизнь на двоих через торрент | qTorrent

% Раздел Тема Автор DL S | L
Наши сериалы [ 10.58 GB ] Одна жизнь на двоих / Чёрно-белый танец / Сезон: 1 / Серии: 1-16 из 16 [2018 Семейная сага WEB-DLRip-AVC] bober100 Скачать
1 | 0
Наши сериалы [ 10.15 GB ] Одна жизнь на двоих / Чёрно-белый танец / Сезон: 1 / Серии: 1-16 из 16 [2018 Семейная сага WEB-DLRip] bober100 Скачать
1 | 0
Наши сериалы [ 10.82 GB ] Одна жизнь на двоих / Серии: 1-16 из 16 [2018 экранизация SATRip-AVC] aleksan55 Скачать
1 | 0


Последний раз редактировалось: oleg8 (2018-04-05 13:13), всего редактировалось 8 раз(а)

28-11-2019 20:33  

Отключить всю рекламу на сайте

05-04-2018 13:14 Одна жизнь на двоих Скачать торрент  

Добавил 15-16 серии,сериал завершен.pb.wtf



    Дорогой пользователь! Огромная просьба, поблагодарите релизера, оцените раздачу и оставьте свои комментарий, если Вы скачали Одна жизнь на двоих через торрент бесплатно! Внесите свою лепту в развитие PiratBit!
    Комментировать посты могут только пользователи прошедшие не сложную регистрацию
    Показать сообщения:    

    Одна жизнь на двоих через торрент
    Скачать бесплатно Одна жизнь на двоих
    Одна жизнь на двоих скачать торрент
    Одна жизнь на двоих смотреть онлайн
    Cкачать фильм Одна жизнь на двоих бесплатно
    Одна жизнь на двоих скачать торрент в хорошем качестве
    Одна жизнь на двоих смотреть онлайн бесплатно в хорошем качестве


    Вы не можете начинать темы
    Вы не можете отвечать на сообщения
    Вы не можете редактировать свои сообщения
    Вы не можете удалять свои сообщения
    Вы не можете голосовать в опросах
    Вы не можете прикреплять файлы к сообщениям
    Вы можете скачивать файлы