Ссылка на приватное зеркало всего за 1$. Внимание количество ограничено!!!

OK

1+1

iTunes

мы

OK

1

WEB-DLRip

Джокер

Пифагор

Ведьмак / The Witcher сериал

iTunes

ПШазам

ОК

Оно 2

iTunes

30
pack

Вам бонус

ВАЖНО

!!Акция!!

Alien_RageХит недели

RePack

Resident Evil 21

ИГРА 18+

pack

RePack

jed

RePack

fifa19

RePack

Assassins Creed: Odyssey

RePack

NEED FOR SPEED™ PAYBACK

4 сезон

9 сезон

Бесстыжие 9 сезон

Все сериалы

все сериалы на PB.wtf

RePack

FAR CRY 5
  

Поттерсвилль / Pottersville (Сет Хенриксон) [2017, Комедия, WEBRip 1080p] [MVO] (Jaskier) pb.wtf

Поттерсвилль через торрент pb.wtf

Размер: 4.2 GB | Добавлен: 1 год 9 мес. назад | Торрент скачан:46 раз
Скачать  

26-03-2018 21:08 Поттерсвилль Скачать торрент  

Поттерсвилль / Pottersville
Год выпуска: 2017
Произведено: США
Категория: Комедия
Продолжительность: 01:25:37
Перевод: Профессиональный (многоголосый закадровый) | Jaskier
Примечание: Присутствует короткая аудио реклама

Режиссер постановщик: Сет Хенриксон

В главных ролях: Кристина Хендрикс, Майкл Шеннон, Джуди Грир, Рон Перлман, Иэн МакШейн, Томас Леннон, Блейк Перлман, Майкл Торпей, Елена Херст, Тимоти Дэвис-Рид

О фильме: В центре истории находится провинциальный бизнесмен Мейнард, которого ошибочно принимают за легендарного Бигфута во время его пьяной прогулки по городу в костюме гориллы. Вскоре эта новость попала в СМИ и вызвала нешуточный ажиотаж, в результате чего в городок, переживающий не лучшие времена, хлынули туристы.

rating

Файл
Качество: WEBRip 1080p
Формат: MKV
Видео данные: 1920x804 | X264/MPEG4-AVC | ~6116 kbps | 23.976 fps
Аудио 1: 48 kHz, AC3 Dolby Digital, 3/2 (L,C,R,l,r) + LFE ch, ~384 kbps - MVO
Аудио 2: 48 kHz, AC3 Dolby Digital, 3/2 (L,C,R,l,r) + LFE ch, ~384 kbps - ENG
General
Unique ID : 194124346004505196766063864253532524194 (0x920AFD3508667FC6A6E310894A5ECEA2)
Complete name : F:\Pottersville.2017.1080p.JASKiER.mkv
Format : Matroska
Format version : Version 2
File size : 4.20 GiB
Duration : 1 h 25 min
Overall bit rate : 7 024 kb/s
Encoded date : UTC 2018-03-26 14:48:40
Writing application : mkvmerge v5.8.0 ('No Sleep / Pillow') built on Sep 2 2012 15:37:04
Writing library : libebml v1.2.3 + libmatroska v1.3.0

Video
ID : 1
Format : AVC
Format/Info : Advanced Video Codec
Format profile : High@L4.1
Format settings : CABAC / 5 Ref Frames
Format settings, CABAC : Yes
Format settings, RefFrames : 5 frames
Codec ID : V_MPEG4/ISO/AVC
Duration : 1 h 25 min
Bit rate : 6 116 kb/s
Width : 1 920 pixels
Height : 804 pixels
Display aspect ratio : 2.40:1
Frame rate mode : Constant
Frame rate : 23.976 (24000/1001) FPS
Color space : YUV
Chroma subsampling : 4:2:0
Bit depth : 8 bits
Scan type : Progressive
Bits/(Pixel*Frame) : 0.165
Stream size : 3.66 GiB (87%)
Writing library : x264 core 148 r2744 b97ae06
Encoding settings : cabac=1 / ref=5 / deblock=1:-3:-3 / analyse=0x3:0x133 / me=umh / subme=8 / psy=1 / psy_rd=1.00:0.00 / mixed_ref=1 / me_range=32 / chroma_me=1 / trellis=2 / 8x8dct=1 / cqm=0 / deadzone=21,11 / fast_pskip=1 / chroma_qp_offset=-2 / threads=12 / lookahead_threads=2 / sliced_threads=0 / slices=4 / nr=0 / decimate=1 / interlaced=0 / bluray_compat=0 / constrained_intra=0 / bframes=3 / b_pyramid=2 / b_adapt=1 / b_bias=0 / direct=1 / weightb=1 / open_gop=0 / weightp=2 / keyint=240 / keyint_min=23 / scenecut=50 / intra_refresh=0 / rc_lookahead=50 / rc=crf / mbtree=1 / crf=17.0 / qcomp=0.60 / qpmin=0 / qpmax=69 / qpstep=4 / vbv_maxrate=15310 / vbv_bufsize=16510 / crf_max=0.0 / nal_hrd=none / filler=0 / ip_ratio=1.40 / aq=1:1.50
Default : Yes
Forced : No

Audio #1
ID : 2
Format : AC-3
Format/Info : Audio Coding 3
Format settings, Endianness : Big
Codec ID : A_AC3
Duration : 1 h 25 min
Bit rate mode : Constant
Bit rate : 384 kb/s
Channel(s) : 6 channels
Channel positions : Front: L C R, Side: L R, LFE
Sampling rate : 48.0 kHz
Frame rate : 31.250 FPS (1536 SPF)
Bit depth : 16 bits
Compression mode : Lossy
Stream size : 235 MiB (5%)
Language : Russian
Service kind : Complete Main
Default : Yes
Forced : No

Audio #2
ID : 3
Format : AC-3
Format/Info : Audio Coding 3
Format settings, Endianness : Big
Codec ID : A_AC3
Duration : 1 h 25 min
Bit rate mode : Constant
Bit rate : 384 kb/s
Channel(s) : 6 channels
Channel positions : Front: L C R, Side: L R, LFE
Sampling rate : 48.0 kHz
Frame rate : 31.250 FPS (1536 SPF)
Bit depth : 16 bits
Compression mode : Lossy
Stream size : 235 MiB (5%)
Language : English
Service kind : Complete Main
Default : No
Forced : No
скриншот  скриншот  скриншот  
pb.wtf



Скачать Поттерсвилль через торрент https://i102.fastpic.ru/big/2018/0326/55/1521c4eacf244deca29d287dd69b1255.png Скачать фильм Поттерсвилль через торрент бесплантно в хорошем качестве О фильме: В центре истории находится провинциальный бизнесмен Мейнард, которого ошибочно принимают за легендарного Бигфута во время его ... 5 10 1
Торрент: Зарегистрирован [2018-03-26 21:08] · скачан: 46 раз
Статус: T временная
Размер: 4.2 GB
Как cкачать? Как скачать Поттерсвилль через торрент | qTorrent

% Раздел Тема Автор DL S | L
T Фильмы (мультфильмы) cо спонсором показа (Новинки AVI/MKV) [ 1.07 GB ] Поттерсвилль / Pottersville [2017 WEBRip] [MVO] killermax2013 Скачать
2 | 0

28-11-2019 20:33  

Отключить всю рекламу на сайте

    Дорогой пользователь! Огромная просьба, поблагодарите релизера, оцените раздачу и оставьте свои комментарий, если Вы скачали Поттерсвилль через торрент бесплатно! Внесите свою лепту в развитие PiratBit!
    Комментировать посты могут только пользователи прошедшие не сложную регистрацию
    Показать сообщения:    

    Поттерсвилль через торрент
    Скачать бесплатно Поттерсвилль
    Поттерсвилль скачать торрент
    Поттерсвилль смотреть онлайн
    Cкачать фильм Поттерсвилль бесплатно
    Поттерсвилль скачать торрент в хорошем качестве
    Поттерсвилль смотреть онлайн бесплатно в хорошем качестве


    Вы не можете начинать темы
    Вы не можете отвечать на сообщения
    Вы не можете редактировать свои сообщения
    Вы не можете удалять свои сообщения
    Вы не можете голосовать в опросах
    Вы не можете прикреплять файлы к сообщениям
    Вы можете скачивать файлы