2 сезон

iTunes

MVO

1

2 сезон

iTunes

iTunes

1 сезон

RePack

30

Новинка

ВАЖНО

ИГРА 18+

pack

RePack

MK11
pack

Легкие деньги

RePack

jed

RePack

fifa19

RePack

RDR2

RePack

NEED FOR SPEED™ PAYBACK

4 сезон

9 сезон

Бесстыжие 9 сезон

Все сериалы

все сериалы на PB.wtf

RePack

FAR CRY 5

Anonymous, доброй ночи, мы не успеваем собрать деньги на оплату серверов за декабрь и январь, помогите нам пожалуйста в это трудное время. В качестве благодарности мы отключим Вам всю рекламу на сайте (укажите свой ник в строку Ваше имя)!

×
  
Magnet ссылка

Большая игра / Molly's Game (Аарон Соркин) [2017, драма, биография, WEB-DLRip-AVC] DUB [iTunes] pb.wtf

Большая игра через торрент pb.wtf

Размер: 2.01 GB | Добавлен: 2 года 10 мес. назад | Торрент скачан:1450 раз
Скачать  

27-03-2018 04:52 Большая игра Скачать торрент  

Большая игра / Molly's GameГод выпуска: 2017
Страна: США
Жанр: драма, биография
Продолжительность: 02:20:16
Перевод: Дублированный | iTunes
Субтитры: отсутствуют

Режиссер: Аарон Соркин

rating

В ролях:

Джессика Честейн, Идрис Эльба, Кевин Костнер, Майкл Сера, Джереми Стронг, Крис О Дауд, Дж.С. МакКензи, Брайан Д Арси Джеймс, Билл Кэмп, Грэм Грин

Описание:

Молли Блум называли Принцессой покера. Она построила самое дорогое подпольное казино в Голливуде. Каждую минуту здесь шли ва-банк кинозвезды, шейхи, миллиардеры. Большие деньги пахнут кровью. Как выжить, когда за тобой охотится мафия и ФБР?

Качество: WEB-DLRip-AVC
Формат: MKV

Видео: 1024x428 (2.40:1), 24,000 fps, x264 ~1 470 kbps avg, 0.140 bit/pixel
Аудио#1: 48 kHz, AC3 Dolby Digital, 3/2 (L,C,R,l,r) + LFE ch, ~384.00 kbps avg | RUS (iTunes)
Аудио#2: 48 kHz, AC3 Dolby Digital, 2 (L,R) ch, ~192.00 kbps avg | ENG
скриншот   скриншот   скриншот  

Общее
Уникальный идентификатор : 213235960391901958958838022327772055257 (0xA06BC08BD8CA9C10B77675ED78AB06D9)
Полное имя : E:OlLanDGroupMolly's.Game.2017.WEB-DLRip(AVC).OlLanDGroup.mkv
Формат : Matroska
Версия формата : Version 2
Размер файла : 2,01 Гбайт
Продолжительность : 2 ч. 20 м.
Общий поток : 2048 Кбит/сек
Название фильма : Molly's.Game.2017 #TorpedoUK#
Дата кодирования : UTC 2018-03-27 01:52:37
Программа кодирования : mkvmerge v7.8.0 ('River Man') 32bit built on Apr 3 2015 12:11:22
Библиотека кодирования : libebml v1.3.1 + libmatroska v1.4.2

Видео
Идентификатор : 1
Формат : AVC
Формат/Информация : Advanced Video Codec
Профиль формата : High@L4.1
Параметр CABAC формата : Да
Параметр ReFrames формата : 10 кадров
Идентификатор кодека : V_MPEG4/ISO/AVC
Продолжительность : 2 ч. 20 м.
Битрейт : 1470 Кбит/сек
Ширина : 1024 пикселя
Высота : 428 пикселей
Соотношение сторон : 2,40:1
Режим частоты кадров : Постоянный
Частота кадров : 24,000 кадра/сек
Цветовое пространство : YUV
Субдискретизация насыщенности : 4:2:0
Битовая глубина : 8 бит
Тип развёртки : Прогрессивная
Бит/(Пиксели*Кадры) : 0.140
Размер потока : 1,40 Гбайт (70%)
Библиотека кодирования : x264 core 146 r2538 121396c
Настройки программы : cabac=1 / ref=10 / deblock=1:-3:-3 / analyse=0x3:0x133 / me=umh / subme=11 / psy=1 / psy_rd=1.00:0.05 / mixed_ref=1 / me_range=48 / chroma_me=1 / trellis=2 / 8x8dct=1 / cqm=0 / deadzone=21,11 / fast_pskip=1 / chroma_qp_offset=-3 / threads=6 / lookahead_threads=1 / sliced_threads=0 / nr=0 / decimate=1 / interlaced=0 / bluray_compat=0 / constrained_intra=0 / bframes=10 / b_pyramid=2 / b_adapt=2 / b_bias=0 / direct=3 / weightb=1 / open_gop=0 / weightp=2 / keyint=240 / keyint_min=24 / scenecut=40 / intra_refresh=0 / rc_lookahead=40 / rc=2pass / mbtree=0 / bitrate=1470 / ratetol=1.0 / qcomp=0.60 / qpmin=0 / qpmax=69 / qpstep=4 / cplxblur=20.0 / qblur=0.5 / vbv_maxrate=50000 / vbv_bufsize=62500 / nal_hrd=none / filler=0 / ip_ratio=1.40 / pb_ratio=1.30 / aq=1:1.00
Язык : English
Default : Да
Forced : Нет

Аудио #1
Идентификатор : 2
Формат : AC-3
Формат/Информация : Audio Coding 3
Расширение режима : CM (complete main)
Параметр Endianness формата : Big
Идентификатор кодека : A_AC3
Продолжительность : 2 ч. 20 м.
Вид битрейта : Постоянный
Битрейт : 384 Кбит/сек
Каналы : 6 каналов
Расположение каналов : Front: L C R, Side: L R, LFE
Частота : 48,0 КГц
Частота кадров : 31,250 кадров/сек (1536 spf)
Битовая глубина : 16 бит
Метод сжатия : С потерями
Размер потока : 385 Мбайт (19%)
Заголовок : [DUB] DD 5.1 @ 384 kbps (iTunes)
Язык : Russian
Default : Да
Forced : Нет

Аудио #2
Идентификатор : 3
Формат : AC-3
Формат/Информация : Audio Coding 3
Расширение режима : CM (complete main)
Параметр Endianness формата : Big
Идентификатор кодека : A_AC3
Продолжительность : 2 ч. 20 м.
Вид битрейта : Постоянный
Битрейт : 192 Кбит/сек
Каналы : 2 канала
Расположение каналов : Front: L R
Частота : 48,0 КГц
Частота кадров : 31,250 кадров/сек (1536 spf)
Битовая глубина : 16 бит
Метод сжатия : С потерями
Размер потока : 193 Мбайт (9%)
Заголовок : Original
Язык : English
Default : Нет
Forced : Нет

Меню
00:00:00.000 : en:Глава 1
00:07:41.083 : en:Глава 2
00:16:00.874 : en:Глава 3
00:23:25.874 : en:Глава 4
00:33:18.165 : en:Глава 5
00:41:36.165 : en:Глава 6
00:49:57.998 : en:Глава 7
00:59:16.498 : en:Глава 8
01:06:53.998 : en:Глава 9
01:15:05.414 : en:Глава 10
01:22:30.205 : en:Глава 11
01:31:05.871 : en:Глава 12
01:41:03.871 : en:Глава 13
01:51:07.746 : en:Глава 14
02:00:55.162 : en:Глава 15
02:08:32.162 : en:Глава 16

pb.wtf



Скачать Большая игра через торрент http://lostpix.com/img/2018-03/27/jh1x9ocxfty0quftuc7cioa05.jpg Скачать фильм Большая игра через торрент бесплантно в хорошем качестве Описание: Молли Блум называли Принцессой покера. Она построила самое дорогое подпольное казино в Голливуде. Каждую минуту здесь шли ва-банк ... 9.5 10 23
Info! Золотая раздача, скачанное не засчитывается.
Торрент: Зарегистрирован [2018-03-27 04:52] · скачан: 1 450 раз
Статус: √ проверено
Размер: 2.01 GB
Как cкачать? Как скачать Большая игра через торрент | UTorrent

28-11-2019 20:33  

Отключить всю рекламу на сайте

    Дорогой пользователь! Огромная просьба, поблагодарите релизера, оцените раздачу и оставьте свои комментарий, если Вы скачали Большая игра через торрент бесплатно! Внесите свою лепту в развитие PiratBit!
    Комментировать посты могут только пользователи прошедшие не сложную регистрацию
    Показать сообщения:    

    Большая игра через торрент
    Скачать бесплатно Большая игра
    Большая игра скачать торрент
    Большая игра смотреть онлайн
    Cкачать фильм Большая игра бесплатно
    Большая игра скачать торрент в хорошем качестве
    Большая игра смотреть онлайн бесплатно в хорошем качестве


    Вы не можете начинать темы
    Вы не можете отвечать на сообщения
    Вы не можете редактировать свои сообщения
    Вы не можете удалять свои сообщения
    Вы не можете голосовать в опросах
    Вы не можете прикреплять файлы к сообщениям
    Вы можете скачивать файлы