Ссылка на приватное зеркало нашего сайта всего за 1$. Внимание количество ограничено!!!

2 сезон

iTunes

1 сезон

1

2 сезон

2 сезон

iTunes

1 сезон

RePack

30

Новинка

ВАЖНО

ИГРА 18+

pack

RePack

MK11
pack

Забери бонус

RePack

jed

!!Акция!!

Alien_Rage

RePack

fifa19

RePack

Assassins Creed: Odyssey

RePack

NEED FOR SPEED™ PAYBACK

4 сезон

9 сезон

Бесстыжие 9 сезон

Все сериалы

все сериалы на PB.wtf

RePack

FAR CRY 5
  

Колесо чудес / Wonder Wheel (Вуди Аллен) [2017, драма, BD Remux 1080p] DUB [iTunes] pb.wtf

Колесо чудес через торрент pb.wtf

Размер: 27.85 GB | Добавлен: 2 года 8 мес. назад | Торрент скачан:22 раза
Скачать  

27-03-2018 05:02 Колесо чудес Скачать торрент  

Колесо чудес / Wonder WheelГод выпуска: 2017
Страна: США
Жанр: драма
Продолжительность: 01:41:01
Перевод: Дублированный | iTunes
Субтитры: Английские

Режиссер: Вуди Аллен

rating

В ролях:

Джеймс Белуши, Джуно Темпл, Джастин Тимберлейк, Кейт Уинслет, Макс Казелла, Джек Гор, Дэвид Крамхолц, Роберт С. Кирк, Томми Нохилли, Тони Сирико

Описание:

История страсти, жестокости и предательства, рассказывающая о четырех героях, чьи судьбы переплелись среди бурной жизни знаменитого парка развлечений. Действие разворачивается на живописном Кони Айленде в Нью-Йорке.

Качество: BD Remux 1080p
Формат: MKV

Видео: MPEG-4 AVC, 1920x1080, 35.8 Mbit/s, 23.976 fps
Аудио#1: 48 kHz, AC3, 5.1, 384 Kbps | Дублированный | iTunes | RUS |
Аудио#2: 48 kHz, DTS-HD MA, 5.1, 3327 Kbps | Оригинал | ENG |
скриншот   скриншот   скриншот   скриншот  

General
Unique ID : 262139546335549534720415996974274289677 (0xC5363D7D1054A5319A922EC8CF41A00D)
Complete name : C:Video111Wonder.Wheel.2017.BDREMUX.1080p.ExKinoRay.mkv
Format : Matroska
Format version : Version 4 / Version 2
File size : 27.9 GiB
Duration : 1 h 41 min
Overall bit rate mode : Variable
Overall bit rate : 39.5 Mb/s
Movie name : Wonder Wheel 2017 from ExKinoRay
Encoded date : UTC 2018-03-26 22:10:02
Writing application : mkvmerge v21.0.0 ('Tardigrades Will Inherit The Earth') 64-bit
Writing library : libebml v1.3.5 + libmatroska v1.4.8

Video
ID : 1
Format : AVC
Format/Info : Advanced Video Codec
Format profile : High@L4.1
Format settings : CABAC / 4 Ref Frames
Format settings, CABAC : Yes
Format settings, ReFrames : 4 frames
Codec ID : V_MPEG4/ISO/AVC
Duration : 1 h 41 min
Bit rate mode : Variable
Bit rate : 35.8 Mb/s
Maximum bit rate : 39.0 Mb/s
Width : 1 920 pixels
Height : 1 080 pixels
Display aspect ratio : 16:9
Frame rate mode : Constant
Frame rate : 23.976 (24000/1001) FPS
Color space : YUV
Chroma subsampling : 4:2:0
Bit depth : 8 bits
Scan type : Progressive
Bits/(Pixel*Frame) : 0.719
Stream size : 25.2 GiB (91%)
Language : English
Default : Yes
Forced : No

Audio #1
ID : 2
Format : AC-3
Format/Info : Audio Coding 3
Codec ID : A_AC3
Duration : 1 h 40 min
Bit rate mode : Constant
Bit rate : 384 kb/s
Channel(s) : 6 channels
Channel positions : Front: L C R, Side: L R, LFE
Sampling rate : 48.0 kHz
Frame rate : 31.250 FPS (1536 SPF)
Bit depth : 16 bits
Compression mode : Lossy
Stream size : 277 MiB (1%)
Title : iTunes
Language : Russian
Service kind : Complete Main
Default : Yes
Forced : Yes

Audio #2
ID : 3
Format : DTS
Format/Info : Digital Theater Systems
Format profile : MA / Core
Codec ID : A_DTS
Duration : 1 h 41 min
Bit rate mode : Variable / Constant
Bit rate : 3 327 kb/s / 1 509 kb/s
Channel(s) : 6 channels
Channel positions : Front: L C R, Side: L R, LFE
Sampling rate : 48.0 kHz
Frame rate : 93.750 FPS (512 SPF)
Bit depth : 24 bits
Compression mode : Lossless / Lossy
Stream size : 2.35 GiB (8%)
Title : Original
Language : English
Default : No
Forced : No

Text
ID : 4
Format : UTF-8
Codec ID : S_TEXT/UTF8
Codec ID/Info : UTF-8 Plain Text
Duration : 1 h 39 min
Bit rate : 92 b/s
Count of elements : 2030
Stream size : 67.5 KiB (0%)
Title : Full
Language : English
Default : No
Forced : No

Menu
00:00:00.000 : en:Chapter 1
00:06:07.450 : en:Chapter 2
00:12:22.366 : en:Chapter 3
00:17:53.322 : en:Chapter 4
00:23:46.425 : en:Chapter 5
00:30:24.072 : en:Chapter 6
00:35:28.543 : en:Chapter 7
00:40:06.904 : en:Chapter 8
00:46:12.352 : en:Chapter 9
00:51:53.735 : en:Chapter 10
00:58:04.898 : en:Chapter 11
01:01:55.086 : en:Chapter 12
01:05:18.497 : en:Chapter 13
01:09:38.465 : en:Chapter 14
01:12:15.039 : en:Chapter 15
01:17:58.840 : en:Chapter 16
01:24:03.747 : en:Chapter 17
01:28:39.188 : en:Chapter 18
01:35:05.282 : en:Chapter 19
01:37:57.288 : en:Chapter 20

pb.wtf



Скачать Колесо чудес через торрент http://lostpix.com/img/2018-03/26/74nyftehapf4x28qan7oslzjm.jpg Скачать фильм Колесо чудес через торрент бесплантно в хорошем качестве Описание: История страсти, жестокости и предательства, рассказывающая о четырех героях, чьи судьбы переплелись среди бурной жизни ... 8.2 10 5
Торрент: Зарегистрирован [2018-03-27 05:02] · скачан: 22 раз
Статус: √ проверено
Размер: 27.85 GB
Как cкачать? Как скачать Колесо чудес через торрент | qTorrent

% Раздел Тема Автор DL S | L
Фильмы 2017 [DVDrip, WEB-DLRip, HDrip] (DUB, MVO) [ 1.42 GB ] Колесо чудес / Wonder Wheel [2017 BDRip] - Twi7ter Скачать
1 | 0
Фильмы 2017 [DVDrip, WEB-DLRip, HDrip] (DUB, MVO) [ 1.42 GB ] Колесо чудес / Wonder Wheel [2017 BDRip] killermax2013 Скачать
2 | 0
Фильмы 2017 [DVDrip, WEB-DLRip, HDrip] (DUB, MVO) [ 2.29 GB ] Колесо чудес / Wonder Wheel [2017 BDRip-AVC] bober100 Скачать
1 | 0
Фильмы [HD 720p, 1080p] (Хороший звук DUB, MVO) [ 7.57 GB ] Колесо чудес / Wonder Wheel [2017 BDRip 1080p] bober100 Скачать
1 | 0

28-11-2019 20:33  

Отключить всю рекламу на сайте

    Дорогой пользователь! Огромная просьба, поблагодарите релизера, оцените раздачу и оставьте свои комментарий, если Вы скачали Колесо чудес через торрент бесплатно! Внесите свою лепту в развитие PiratBit!
    Комментировать посты могут только пользователи прошедшие не сложную регистрацию
    Показать сообщения:    

    Колесо чудес через торрент
    Скачать бесплатно Колесо чудес
    Колесо чудес скачать торрент
    Колесо чудес смотреть онлайн
    Cкачать фильм Колесо чудес бесплатно
    Колесо чудес скачать торрент в хорошем качестве
    Колесо чудес смотреть онлайн бесплатно в хорошем качестве


    Вы не можете начинать темы
    Вы не можете отвечать на сообщения
    Вы не можете редактировать свои сообщения
    Вы не можете удалять свои сообщения
    Вы не можете голосовать в опросах
    Вы не можете прикреплять файлы к сообщениям
    Вы можете скачивать файлы