Ссылка на приватное зеркало всего за 1$. Внимание количество ограничено!!!

OK

1+1

iTunes

мы

OK

1

WEB-DLRip

Джокер

Пифагор

Ведьмак / The Witcher сериал

Лицензия

ПШазам

ОК

Оно 2

iTunes

30
pack

Вам бонус

ВАЖНО

!!Акция!!

Alien_RageХит недели

RePack

Resident Evil 21

ИГРА 18+

pack

RePack

jed

RePack

fifa19

RePack

Assassins Creed: Odyssey

RePack

NEED FOR SPEED™ PAYBACK

4 сезон

9 сезон

Бесстыжие 9 сезон

Все сериалы

все сериалы на PB.wtf

RePack

FAR CRY 5
  

Золотой сон / Goldeun seulreombeo (Но Дон-сок) [2018 г., Триллер, боевик, WEB-DLRip, Любительский (многоголосый)(Колобок)] pb.wtf

Золотой сон через торрент pb.wtf

Размер: 1.47 GB | Добавлен: 1 год 9 мес. назад | Торрент скачан:206 раз
Скачать  

27-03-2018 07:59 Золотой сон Скачать торрент  

Золотой сон / Goldeun seulreombeo
Год выпуска: 2018
Страна: Южная Корея, Zip Cinema
Жанр: Триллер, боевик
Продолжительность: 01:48:13
Перевод: Любительский (многоголосый)(Колобок)
Субтитры: Отсутствуют

Режиссер: Но Дон-сок

rating

В ролях: Кан Дон-вон, Хан Хё-джу, Ким И-сон, Ким Сон-гюн, Ким Дэ-мён, Ю Джэ-мён, Юн Ге-сан, Пэк Пон-ги, Чон Со-мин, Ли Джун-хёк

Описание: Обычный курьер Ким Гон-у попадает в неприятности, связанные с могущественным человеком. Парня считают виновным в покушении на кандидата в президенты, и теперь за ним охотится полиция и спецназ.

Доп. информация: Присутствуют вставки текстовой рекламы!

Качество: WEB-DLRip
Формат: AVI
Видео кодек: XviD
Аудио кодек: AC3
Видео: XviD, 720x304, 1554 Kbps
Аудио#1: AC-3, 48.0 KHz, 2 ch, 384 Kbps
скриншот   скриншот   скриншот   скриншот  

Общее
Полное имя : E:\NNM\Золотой сон\Golden Slumber 2018 WEB-DLRip.avi
Формат : AVI
Формат/Информация : Audio Video Interleave
Профиль формата : OpenDML
Размер файла : 1,47 Гбайт
Продолжительность : 1 ч. 48 м.
Общий поток : 1950 Кбит/сек

Видео
Идентификатор : 0
Формат : MPEG-4 Visual
Профиль формата : Advanced Simple@L5
Настройки формата : BVOP2
Параметр BVOP формата : 2
Параметр QPel формата : Нет
Параметр GMC формата : Без точки перехода
Параметр матрицы формата : Default (MPEG)
Идентификатор кодека : XVID
Идентификатор кодека/Подсказка : XviD
Продолжительность : 1 ч. 48 м.
Битрейт : 1554 Кбит/сек
Ширина : 720 пикселей
Высота : 304 пикселя
Соотношение сторон : 2,35:1
Частота кадров : 23,976 (24000/1001) кадра/сек
Цветовое пространство : YUV
Субдискретизация насыщенности : 4:2:0
Битовая глубина : 8 бит
Тип развёртки : Прогрессивная
Метод сжатия : С потерями
Бит/(Пиксели*Кадры) : 0.296
Размер потока : 1,18 Гбайт (80%)
Библиотека кодирования : XviD 1.2.1 (UTC 2008-12-04)

Аудио
Идентификатор : 1
Формат : AC-3
Формат/Информация : Audio Coding 3
Идентификатор кодека : 2000
Продолжительность : 1 ч. 48 м.
Вид битрейта : Постоянный
Битрейт : 384 Кбит/сек
Каналы : 2 канала
Расположение каналов : Front: L R
Частота : 48,0 КГц
Частота кадров : 31,250 кадров/сек (1536 SPF)
Битовая глубина : 16 бит
Метод сжатия : С потерями
Размер потока : 297 Мбайт (20%)
Выравнивание : Соединение по промежуткам
Продолжительность промежутка : 32 мс. (0,77 видеокадр)
ServiceKind/String : Complete Main

pb.wtf



Скачать Золотой сон через торрент https://i101.fastpic.ru/big/2018/0327/a5/a4ecb2e02d0da54a486c41d1d245eda5.jpg Скачать фильм Золотой сон через торрент бесплантно в хорошем качестве Описание: Обычный курьер Ким Гон-у попадает в неприятности, связанные с могущественным человеком. Парня считают виновным в покушении на ... 8.7 10 9
Торрент: Зарегистрирован [2018-03-27 07:59] · скачан: 206 раз
Статус: T временная
Размер: 1.47 GB
Как cкачать? Как скачать Золотой сон через торрент | qTorrent

28-11-2019 20:33  

Отключить всю рекламу на сайте

28-03-2018 14:09 Золотой сон Скачать торрент  

очень сильные боевики у корейцев в последнее время.забираю конечно.спасибо раздающему.pb.wtf



    Дорогой пользователь! Огромная просьба, поблагодарите релизера, оцените раздачу и оставьте свои комментарий, если Вы скачали Золотой сон через торрент бесплатно! Внесите свою лепту в развитие PiratBit!
    Комментировать посты могут только пользователи прошедшие не сложную регистрацию
    Показать сообщения:    

    Золотой сон через торрент
    Скачать бесплатно Золотой сон
    Золотой сон скачать торрент
    Золотой сон смотреть онлайн
    Cкачать фильм Золотой сон бесплатно
    Золотой сон скачать торрент в хорошем качестве
    Золотой сон смотреть онлайн бесплатно в хорошем качестве


    Вы не можете начинать темы
    Вы не можете отвечать на сообщения
    Вы не можете редактировать свои сообщения
    Вы не можете удалять свои сообщения
    Вы не можете голосовать в опросах
    Вы не можете прикреплять файлы к сообщениям
    Вы можете скачивать файлы