новый адрес
Ссылка на приватное зеркало всего за 1$. Внимание количество ограничено!!!

iTunes

1+1

iTunes

мы

WEB-DL

1

iTunes

Чернобыль

iTunes

Ральф против интернета

Лицензия

ПШазам

Лицензия

Оно 2

Лицензия

30
pack

Вам бонус

ВАЖНО

!!Акция!!

Alien_RageХит недели

RePack

Resident Evil 21

ИГРА 18+

pack

RePack

jed

!!Акция!!

Alien_Rage

RePack

fifa19

RePack

Assassins Creed: Odyssey

RePack

NEED FOR SPEED™ PAYBACK

3 сезон

9 сезон

Бесстыжие 9 сезон

Все сериалы

все сериалы на PB.wtf

RePack

FAR CRY 5
Ребята, катастрофически не хватает 1900р. для оплаты серверов за Октябрь (всвязи с блокировками трафик упал в 3 раза), 1-2р., выручайте.
  

Девичья весна (Вениамин Дорман, Генрих Оганесян) [1960, СССР, комедия, DVDRip от AVP Studio] pb.wtf

Девичья весна через торрент pb.wtf

Размер: 745 MB | Добавлен: 1 год 8 мес. назад | Торрент скачан:16 раз
Скачать  

27-03-2018 08:32 Девичья весна Скачать торрент  

Девичья весна
Страна: СССР
Производство: Киностудия им. Горького

Жанр: комедия
Год выпуска: 1960
Продолжительность: 01:32:08

Перевод: Не требуется
Cубтитры: нет
Оригинальная аудиодорожка: русский

Режиссер: Вениамин Дорман, Генрих Оганесян

В ролях:
Мира Кольцова, Лев Барашков, Люсьена Овчинникова, Алексей Ванин, Джелла Агафонова, Галина Петрова, Гарэн Жуковская, Эмилия Трейвас, Георгий Тусузов, Владимир Лепко, Иван Рыжов, Георгий Слабиняк, Александр Денисов, Антонина Богданова, Владимир Дорофеев, Марина Григорьева, Людмила Краузова, Маргарита Кудахова, Игорь Кириллов...
Об актёрах подробней

Описание:
Популярный хореографический ансамбль 'Девичья весна', вернувшись из-за границы, получает приглашение от судостроителей-сормовичей - и отправляется на теплоходе в Горький. К удовольствию пассажиров каждый день идут репетиции. На теплоход проникает влюбленный в солистку Галину мастер-оптик Володя Макеев и устраивается на кухню подсобным рабочим. Далее последует череда веселых недоразумений, что не помешает влюбленным объясниться в любви.

Источник: DVD5 R5
Качество видео: DVDRip
Формат видео: AVI

Видео: 688х336 (2,048:1), 25 fps, XviD ~ 929 kbps avg, 0.161 bit/pixel
Аудио: 48 kHz, Dolby Digital AC3 2.0, 192 kbps

Раздача от:
Общее
Полное имя : Devichya.vesna.1960.DVDRip_[New-team]_by_AVP_Studio.avi
Формат : AVI
Формат/Информация : Audio Video Interleave
Размер файла : 745 Мбайт
Продолжительность : 1 ч. 32 м.
Общий поток : 1130 Кбит/сек
Программа кодирования : VirtualDubMod 1.5.10.3 | www.virtualdub-fr.org || (build 2550/release)
Библиотека кодирования : VirtualDubMod build 2550/release

Видео
Идентификатор : 0
Формат : MPEG-4 Visual
Профиль формата : Advanced Simple@L5
Настройки формата : BVOP1 / Custom Matrix
Параметр BVOP формата : 1
Параметр QPel формата : Нет
Параметр GMC формата : Без точки перехода
Параметр матрицы формата : Выборочная
Идентификатор кодека : XVID
Идентификатор кодека/Подсказка : XviD
Продолжительность : 1 ч. 32 м.
Битрейт : 929 Кбит/сек
Ширина : 688 пикселей
Высота : 336 пикселей
Соотношение сторон : 2,048
Частота кадров : 25,000 кадров/сек
Цветовое пространство : YUV
Субдискретизация насыщенности : 4:2:0
Битовая глубина : 8 бит
Тип развёртки : Прогрессивная
Метод сжатия : С потерями
Бит/(Пиксели*Кадры) : 0.161
Размер потока : 612 Мбайт (82%)
Библиотека кодирования : XviD 73

Аудио
Идентификатор : 1
Формат : AC-3
Формат/Информация : Audio Coding 3
Идентификатор кодека : 2000
Продолжительность : 1 ч. 32 м.
Вид битрейта : Постоянный
Битрейт : 192 Кбит/сек
Каналы : 2 канала
Расположение каналов : Front: L R
Частота : 48,0 КГц
Частота кадров : 31,250 кадров/сек (1536 SPF)
Битовая глубина : 16 бит
Метод сжатия : С потерями
Размер потока : 127 Мбайт (17%)
Выравнивание : Разделение по промежуткам
Продолжительность промежутка : 40 мс. (1,00 видеокадр)
Время предзагрузки промежутка : 500 мс
pb.wtf



Скачать Девичья весна через торрент http://picplus.ru/img/1803/27/ac3db7d7.png Скачать фильм Девичья весна через торрент бесплантно в хорошем качестве Описание:Популярный хореографический ансамбль 'Девичья весна', вернувшись из-за границы, получает приглашение от судостроителей-сормовичей ... 5 10 1
Info! Золотая раздача, скачанное не засчитывается.
Торрент: Зарегистрирован [2018-03-27 08:32] · скачан: 16 раз
Статус: √ проверено
Размер: 745 MB
Как cкачать? Как скачать Девичья весна через торрент | qTorrent

% Раздел Тема Автор DL S | L
Кино СССР [ 744 MB ] Девичья весна [1960 СССР DVDRip-AVC от AVP Studio] AVP Studio Скачать
1 | 0

28-11-2019 20:33  

Отключить всю рекламу на сайте

    Дорогой пользователь! Огромная просьба, поблагодарите релизера, оцените раздачу и оставьте свои комментарий, если Вы скачали Девичья весна через торрент бесплатно! Внесите свою лепту в развитие PiratBit!
    Комментировать посты могут только пользователи прошедшие не сложную регистрацию
    Показать сообщения:    

    Девичья весна через торрент
    Скачать бесплатно Девичья весна
    Девичья весна скачать торрент
    Девичья весна смотреть онлайн
    Cкачать фильм Девичья весна бесплатно
    Девичья весна скачать торрент в хорошем качестве
    Девичья весна смотреть онлайн бесплатно в хорошем качестве


    Вы не можете начинать темы
    Вы не можете отвечать на сообщения
    Вы не можете редактировать свои сообщения
    Вы не можете удалять свои сообщения
    Вы не можете голосовать в опросах
    Вы не можете прикреплять файлы к сообщениям
    Вы можете скачивать файлы