2 сезон

iTunes

WEBRip

1

2 сезон

iTunes

1 сезон

1 сезон

RePack

30

Ultimate

ВАЖНО

ИГРА 18+

pack

RePack

MK11
pack

Легкие деньги

RePack

jed

RePack

fifa19

RePack

RDR2

RePack

NEED FOR SPEED™ PAYBACK

4 сезон

9 сезон

Бесстыжие 9 сезон

Все сериалы

все сериалы на PB.wtf

RePack

FAR CRY 5

Anonymous, добрый день, мы не успеваем собрать деньги на оплату серверов за февраль, помогите нам пожалуйста в это трудное время. В качестве благодарности мы отключим Вам всю рекламу на сайте (укажите свой ник в строку Ваше имя)!

×
  
Magnet ссылка

Девичья весна (Вениамин Дорман, Генрих Оганесян) [1960, СССР, комедия, DVDRip-AVC от AVP Studio] pb.wtf

Девичья весна через торрент pb.wtf

Размер: 744 MB | Добавлен: 2 года 11 мес. назад | Торрент скачан:25 раз
Скачать  

27-03-2018 08:33 Девичья весна Скачать торрент  

Девичья весна
Страна: СССР
Производство: Киностудия им. Горького

Жанр: комедия
Год выпуска: 1960
Продолжительность: 01:32:08

Перевод: Не требуется
Cубтитры: нет
Оригинальная аудиодорожка: русский

Режиссер: Вениамин Дорман, Генрих Оганесян

В ролях:
Мира Кольцова, Лев Барашков, Люсьена Овчинникова, Алексей Ванин, Джелла Агафонова, Галина Петрова, Гарэн Жуковская, Эмилия Трейвас, Георгий Тусузов, Владимир Лепко, Иван Рыжов, Георгий Слабиняк, Александр Денисов, Антонина Богданова, Владимир Дорофеев, Марина Григорьева, Людмила Краузова, Маргарита Кудахова, Игорь Кириллов...
Об актёрах подробней

Описание:
Популярный хореографический ансамбль 'Девичья весна', вернувшись из-за границы, получает приглашение от судостроителей-сормовичей - и отправляется на теплоходе в Горький. К удовольствию пассажиров каждый день идут репетиции. На теплоход проникает влюбленный в солистку Галину мастер-оптик Володя Макеев и устраивается на кухню подсобным рабочим. Далее последует череда веселых недоразумений, что не помешает влюбленным объясниться в любви.

Источник: DVD5 R5
Качество видео: DVDRip-AVC
Формат видео: MKV

Видео: 696->737х360 (2,050:1), 25 fps, H264 ~ 935 kbps avg, 0.149 bit/pixel
Аудио: 48 kHz, Dolby Digital AC3 2.0, 192 kbps

Раздача от:
Общее
Полное имя : Devichya.vesna.1960.DVDRip-AVC_[New-team]_by_AVP_Studio.mkv
Формат : Matroska
Версия формата : Version 2
Размер файла : 744 Мбайт
Продолжительность : 1 ч. 32 м.
Общий поток : 1129 Кбит/сек
Дата кодирования : UTC 2018-03-26 11:18:20
Программа кодирования : mkvmerge v6.1.0 ('Old Devil') built on Mar 4 2013 09:10:42
Библиотека кодирования : libebml v1.3.0 + libmatroska v1.4.0

Видео
Идентификатор : 1
Формат : AVC
Формат/Информация : Advanced Video Codec
Профиль формата : High@L4.1
Настройки формата : CABAC / 10 Ref Frames
Параметр CABAC формата : Да
Параметр RefFrames формата : 10 кадров
Идентификатор кодека : V_MPEG4/ISO/AVC
Продолжительность : 1 ч. 32 м.
Битрейт : 935 Кбит/сек
Ширина : 696 пикселей
Высота : 360 пикселей
Соотношение сторон : 2,050
Режим частоты кадров : Постоянный
Частота кадров : 25,000 кадров/сек
Цветовое пространство : YUV
Субдискретизация насыщенности : 4:2:0
Битовая глубина : 8 бит
Тип развёртки : Прогрессивная
Бит/(Пиксели*Кадры) : 0.149
Размер потока : 602 Мбайт (81%)
Библиотека кодирования : x264 core 130 r2273 b3065e6
Настройки программы : cabac=1 / ref=10 / deblock=1:-2:-1 / analyse=0x3:0x113 / me=umh / subme=10 / psy=1 / psy_rd=1.00:0.00 / mixed_ref=1 / me_range=32 / chroma_me=1 / trellis=2 / 8x8dct=1 / cqm=0 / deadzone=21,11 / fast_pskip=1 / chroma_qp_offset=-2 / threads=6 / lookahead_threads=1 / sliced_threads=0 / nr=0 / decimate=0 / interlaced=0 / bluray_compat=0 / constrained_intra=0 / bframes=8 / b_pyramid=2 / b_adapt=2 / b_bias=0 / direct=3 / weightb=1 / open_gop=0 / weightp=2 / keyint=250 / keyint_min=25 / scenecut=40 / intra_refresh=0 / rc=2pass / mbtree=0 / bitrate=935 / ratetol=1.0 / qcomp=0.60 / qpmin=0 / qpmax=69 / qpstep=4 / cplxblur=20.0 / qblur=0.5 / ip_ratio=1.40 / pb_ratio=1.30 / aq=1:1.00
Default : Да
Forced : Нет

Аудио
Идентификатор : 2
Формат : AC-3
Формат/Информация : Audio Coding 3
Идентификатор кодека : A_AC3
Продолжительность : 1 ч. 32 м.
Вид битрейта : Постоянный
Битрейт : 192 Кбит/сек
Каналы : 2 канала
Расположение каналов : Front: L R
Частота : 48,0 КГц
Частота кадров : 31,250 кадров/сек (1536 SPF)
Битовая глубина : 16 бит
Метод сжатия : С потерями
Размер потока : 127 Мбайт (17%)
Default : Да
Forced : Нет
pb.wtf



Скачать Девичья весна через торрент http://picplus.ru/img/1803/27/ac3db7d7.png Скачать фильм Девичья весна через торрент бесплантно в хорошем качестве Описание:Популярный хореографический ансамбль 'Девичья весна', вернувшись из-за границы, получает приглашение от судостроителей-сормовичей ... 5 10 1
Info! Золотая раздача, скачанное не засчитывается.
Торрент: Зарегистрирован [2018-03-27 08:33] · скачан: 25 раз
Статус: √ проверено
Размер: 744 MB
Как cкачать? Как скачать Девичья весна через торрент | UTorrent

% Раздел Тема Автор DL S | L
Кино СССР [ 745 MB ] Девичья весна [1960 СССР DVDRip от AVP Studio] AVP Studio Скачать
1 | 0


Последний раз редактировалось: AVP Studio (2018-03-28 18:31), всего редактировалось 1 раз

28-11-2019 20:33  

Отключить всю рекламу на сайте

28-03-2018 17:13 Девичья весна Скачать торрент  

Размер кадра, если верить МИ и скриншотам, должен быть 696@737x360pb.wtf



28-03-2018 18:32 Девичья весна Скачать торрент  

Конечно, невнимательность меня погубит))
Спасибо.pb.wtf



    Дорогой пользователь! Огромная просьба, поблагодарите релизера, оцените раздачу и оставьте свои комментарий, если Вы скачали Девичья весна через торрент бесплатно! Внесите свою лепту в развитие PiratBit!
    Комментировать посты могут только пользователи прошедшие не сложную регистрацию
    Показать сообщения:    

    Девичья весна через торрент
    Скачать бесплатно Девичья весна
    Девичья весна скачать торрент
    Девичья весна смотреть онлайн
    Cкачать фильм Девичья весна бесплатно
    Девичья весна скачать торрент в хорошем качестве
    Девичья весна смотреть онлайн бесплатно в хорошем качестве


    Вы не можете начинать темы
    Вы не можете отвечать на сообщения
    Вы не можете редактировать свои сообщения
    Вы не можете удалять свои сообщения
    Вы не можете голосовать в опросах
    Вы не можете прикреплять файлы к сообщениям
    Вы можете скачивать файлы