2 сезон

iTunes

MVO

1

2 сезон

iTunes

iTunes

1 сезон

RePack

30

Ultimate

ВАЖНО

ИГРА 18+

pack

RePack

MK11
pack

Легкие деньги

RePack

jed

RePack

fifa19

RePack

RDR2

RePack

NEED FOR SPEED™ PAYBACK

4 сезон

9 сезон

Бесстыжие 9 сезон

Все сериалы

все сериалы на PB.wtf

RePack

FAR CRY 5

Anonymous, добрый вечер, мы не успеваем собрать деньги на оплату серверов за декабрь и январь, помогите нам пожалуйста в это трудное время. В качестве благодарности мы отключим Вам всю рекламу на сайте (укажите свой ник в строку Ваше имя)!

×
  
Magnet ссылка

Место встречи / The Place (Паоло Дженовезе) [2017 г., драма, комедия, HDRip, Дубляж "iTunes"] pb.wtf

Место встречи через торрент pb.wtf

Размер: 711 MB | Добавлен: 2 года 9 мес. назад | Торрент скачан:116 раз
Скачать  

27-03-2018 17:57 Место встречи Скачать торрент  

Место встречи / The Place
Год выпуска: 2017
Страна: Италия / Medusa Film, Lotus Productions, Leone Film Group
Жанр: драма, комедия
Продолжительность: 01:41:12
Перевод: Дубляж (iTunes)

Режиссер: Паоло Дженовезе

rating

В ролях: Валерио Мастандреа, Марко Джаллини, Альба Рорвахер, Виттория Пуччини, Рокко Папалео, Сильвио Муччино, Сильва Д'амико, Виничо Маркиони, Алессандро Борги, Сабрина Ферилли, Джулия Ладзарини

Описание: Девять человек приходят в одно и то же место на встречу к таинственному Незнакомцу в надежде, что он исполнит их сокровенные желания. Загадочный мужчина может претворить в жизнь всё, что они захотят. Но за определенную цену… В обмен на осуществление мечты, каждому из гостей предлагается выполнить необычные задания. Чем сложнее исполнение этой мечты, тем выше цена. Каждый из героев должен сделать свой выбор — как далеко он готов зайти, чтобы получить желаемое. И так ли случайны судьбы посетителей этого места встречи?

Качество: HDRip
Формат: AVI
Видео кодек: XviD
Аудио кодек: MP3
Видео: 640x272 (2.35:1), 25 fps, XviD build 50 ~844 kbps avg, 0.19 bit/pixel
Аудио: 48 kHz, MPEG Layer 3, 2 ch, ~128.00 kbps avg
скриншот   скриншот   скриншот   скриншот  

Общее
Полное имя : F:\ФИЛЬМЫ\Место встречи.2017.D.HDRip.avi
Формат : AVI
Формат/Информация : Audio Video Interleave
Размер файла : 711 Мбайт
Продолжительность : 1 ч. 41 м.
Общий поток : 982 Кбит/сек
Программа кодирования : VirtualDubMod 1.5.10.3 | www.virtualdub-fr.org || (build 2550/release)
Библиотека кодирования : VirtualDubMod build 2550/release

Видео
Идентификатор : 0
Формат : MPEG-4 Visual
Профиль формата : Advanced Simple@L5
Настройки формата : BVOP1
Параметр BVOP формата : 1
Параметр QPel формата : Нет
Параметр GMC формата : Без точки перехода
Параметр матрицы формата : Default (MPEG)
Идентификатор кодека : XVID
Идентификатор кодека/Подсказка : XviD
Продолжительность : 1 ч. 41 м.
Битрейт : 844 Кбит/сек
Ширина : 640 пикселей
Высота : 272 пикселя
Соотношение сторон : 2,35:1
Частота кадров : 25,000 кадров/сек
Цветовое пространство : YUV
Субдискретизация насыщенности : 4:2:0
Битовая глубина : 8 бит
Тип развёртки : Прогрессивная
Метод сжатия : С потерями
Бит/(Пиксели*Кадры) : 0.194
Размер потока : 611 Мбайт (86%)
Библиотека кодирования : XviD 1.2.1 (UTC 2008-12-04)

Аудио
Идентификатор : 1
Формат : MPEG Audio
Версия формата : Version 1
Профиль формата : Layer 3
Настройки формата : Joint stereo
Идентификатор кодека : 55
Идентификатор кодека/Подсказка : MP3
Продолжительность : 1 ч. 41 м.
Вид битрейта : Постоянный
Битрейт : 128 Кбит/сек
Каналы : 2 канала
Частота : 48,0 КГц
Частота кадров : 41,667 кадра/сек (1152 SPF)
Метод сжатия : С потерями
Размер потока : 92,7 Мбайт (13%)
Выравнивание : Соединение по промежуткам
Продолжительность промежутка : 40 мс. (1,00 видеокадр)
Время предзагрузки промежутка : 504 мс.
Библиотека кодирования : LAME3.99r
Настройки программы : -m j -V 4 -q 2 -lowpass 17 -b 128

pb.wtf



Скачать Место встречи через торрент http://pic1.kartinco.top/images/11/glt16.jpg Скачать фильм Место встречи через торрент бесплантно в хорошем качестве Описание: Девять человек приходят в одно и то же место на встречу к таинственному Незнакомцу в надежде, что он исполнит их сокровенные ... 10 10 5
Торрент: Зарегистрирован [2018-03-27 17:57] · скачан: 116 раз
Статус: √ проверено
Размер: 711 MB
Как cкачать? Как скачать Место встречи через торрент | UTorrent

% Раздел Тема Автор DL S | L
Фильмы [HD 720p, 1080p] (Хороший звук DUB, MVO) [ 8.8 GB ] Место встречи / The Place [2017 BDRip 1080p] DUB [] bober100 Скачать
1 | 0
Видео для КПК и Смартфонов [ 382 MB ] Место встречи / The Place [2017 HDRip КПК] Dub sergey82 Скачать
1 | 0
Фильмы [HD 720p, 1080p] (Хороший звук DUB, MVO) [ 4.72 GB ] Место встречи / The Place [2017 BDRip 720p] bober100 Скачать
2 | 0
Фильмы 2017 [DVDrip, WEB-DLRip, HDrip] (DUB, MVO) [ 1.46 GB ] Место встречи / The Place [2017 BDRip] - [] Twi7ter Скачать
2 | 0
Фильмы 2017 [DVDrip, WEB-DLRip, HDrip] (DUB, MVO) [ 1.06 GB ] Место встречи / The Place [2017 BDRip-AVC] bober100 Скачать
1 | 0
Фильмы (Blu-ray, BD-Remux, HDDVD) [ 15.62 GB ] Место встречи / The Place [2017 BD Remux 1080i] bober100 Скачать
1 | 0
Фильмы 2017 [DVDrip, WEB-DLRip, HDrip] (DUB, MVO) [ 1.42 GB ] Место встречи / The Place [2017 BDRip] bober100 Скачать
3 | 0

28-11-2019 20:33  

Отключить всю рекламу на сайте

28-03-2018 10:56 Место встречи Скачать торрент  

сериал такой был недавно... не зашел, плоско, не глубоко - какмогло бы быть и хотелось быpb.wtf



    Дорогой пользователь! Огромная просьба, поблагодарите релизера, оцените раздачу и оставьте свои комментарий, если Вы скачали Место встречи через торрент бесплатно! Внесите свою лепту в развитие PiratBit!
    Комментировать посты могут только пользователи прошедшие не сложную регистрацию
    Показать сообщения:    

    Место встречи через торрент
    Скачать бесплатно Место встречи
    Место встречи скачать торрент
    Место встречи смотреть онлайн
    Cкачать фильм Место встречи бесплатно
    Место встречи скачать торрент в хорошем качестве
    Место встречи смотреть онлайн бесплатно в хорошем качестве


    Вы не можете начинать темы
    Вы не можете отвечать на сообщения
    Вы не можете редактировать свои сообщения
    Вы не можете удалять свои сообщения
    Вы не можете голосовать в опросах
    Вы не можете прикреплять файлы к сообщениям
    Вы можете скачивать файлы