1 сезон

1 сезон

iTunes

1

КиноПоиск HD

Кинопоиск HD

iTunes

13

1 сезон

RePack

30

Ultimate

ВАЖНО

ИГРА 18+

pack

RePack

MK11
pack

Легкие деньги

RePack

jed

RePack

fifa19

RePack

RDR2

RePack

NEED FOR SPEED™ PAYBACK

4 сезон

9 сезон

Бесстыжие 9 сезон

Все сериалы

все сериалы на PB.wtf

RePack

FAR CRY 5
  
Magnet ссылка

Добро пожаловать в Коллинвуд / Welcome to Collinwood (Энтони Руссо, Джо Руссо) [2002 г., комедия, криминал, WEBRip] DUB pb.wtf

Добро пожаловать в Коллинвуд через торрент pb.wtf

Размер: 1.45 GB | Добавлен: 3 года назад | Торрент скачан:20 раз
Скачать  

27-03-2018 18:21 Добро пожаловать в Коллинвуд Скачать торрент  

Добро пожаловать в Коллинвуд / Welcome to Collinwood
Год выпуска: 2002
Страна: США, Германия
Жанр: комедия, криминал
Продолжительность: 01:26:02
Перевод: Дубляж
Тип релиза: Amazon

Режиссер: Энтони Руссо, Джо Руссо

rating

В ролях: Джордж Клуни, Уильям Х. Мэйси, Исайя Вашингтон, Сэм Рокуэлл, Майкл Джитер, Луис Гусман, Джон Бак мл., Патришия Кларксон, Эндрю Дэволи, Бретт С. Леонард, Фрэнк О’Доннелл

Описание: У мелкого воришки Косимо появляется план, как разбогатеть, использовав информацию, полученную у сокамерника. Самое главное — поскорее выбраться из тюрьмы. Все, что нужно Косимо — это найти отчаявшегося парня, того, кто согласится за $15000 взять вину на себя и отсидеть от одного до трех лет в тюрьме. Косимо поручает своей подружке Розалинде найти такого простака. Сидеть в тюрьме за преступление Косимо никто не хочет. Однако каждый делает вид, что найдет такого парня за «проценты». Пятеро парней, желающих что-нибудь урвать для себя, постоянно крутятся возле Розалинды.

Качество: WEBRip
Формат: AVI
Видео: XviD, 1956 Кбит/с, 704x288, 23.976 Кадр/с
Аудио: AC3, 6 ch, 448 Кбит/с
Релиз от: Koenig
скриншот   скриншот   скриншот   скриншот   скриншот   скриншот  

Общее
Полное имя : Welcome.to.Collinwood.2002.WEBRip.avi
Формат : AVI
Формат/Информация : Audio Video Interleave
Размер файла : 1,45 Гбайт
Продолжительность : 1 ч. 26 м.
Общий поток : 2413 Кбит/сек
Программа кодирования : VirtualDubMod 1.5.10.2 (build 2540/release)
Библиотека кодирования : VirtualDubMod build 2540/release

Видео
Идентификатор : 0
Формат : MPEG-4 Visual
Профиль формата : Advanced Simple@L5
Параметр BVOP формата : 1
Параметр QPel формата : Нет
Параметр GMC формата : Без точки перехода
Параметр матрицы формата : Выборочная
Идентификатор кодека : XVID
Идентификатор кодека/Подсказка : XviD
Продолжительность : 1 ч. 26 м.
Битрейт : 1956 Кбит/сек
Ширина : 704 пикселя
Высота : 288 пикселей
Соотношение сторон : 2,40:1
Частота кадров : 23,976 (24000/1001) кадра/сек
Цветовое пространство : YUV
Субдискретизация насыщенности : 4:2:0
Битовая глубина : 8 бит
Тип развёртки : Прогрессивная
Метод сжатия : С потерями
Бит/(Пиксели*Кадры) : 0.402
Размер потока : 1,18 Гбайт (81%)
Библиотека кодирования : XviD 65

Аудио
Идентификатор : 1
Формат : AC-3
Формат/Информация : Audio Coding 3
Параметр Endianness формата : Big
Идентификатор кодека : 2000
Продолжительность : 1 ч. 25 м.
Вид битрейта : Постоянный
Битрейт : 448 Кбит/сек
Каналы : 6 каналов
Расположение каналов : Front: L C R, Side: L R, LFE
Частота : 48,0 КГц
Частота кадров : 31,250 кадров/сек (1536 spf)
Битовая глубина : 16 бит
Метод сжатия : С потерями
Размер потока : 275 Мбайт (19%)
Выравнивание : Разделение по промежуткам
Продолжительность промежутка : 42 мс. (1,00 видеокадр)
Время предзагрузки промежутка : 500 мс.
ServiceKind/String : Complete Main

pb.wtf



Скачать Добро пожаловать в Коллинвуд через торрент http://lostpic.net/images/3d27b948cba2408a6a229d735b0a97bb.jpg Скачать фильм Добро пожаловать в Коллинвуд через торрент бесплантно в хорошем качестве Описание: У мелкого воришки Косимо появляется план, как разбогатеть, использовав информацию, полученную у сокамерника. Самое главное — ... 10 10 1
Info! Золотая раздача, скачанное не засчитывается.
Торрент: Зарегистрирован [2018-03-27 18:21] · скачан: 20 раз
Статус: √ проверено
Размер: 1.45 GB
Как cкачать? Как скачать Добро пожаловать в Коллинвуд через торрент | UTorrent

28-11-2019 20:33  

Отключить всю рекламу на сайте

    Дорогой пользователь! Огромная просьба, поблагодарите релизера, оцените раздачу и оставьте свои комментарий, если Вы скачали Добро пожаловать в Коллинвуд через торрент бесплатно! Внесите свою лепту в развитие PiratBit!
    Комментировать посты могут только пользователи прошедшие не сложную регистрацию
    Показать сообщения:    

    Добро пожаловать в Коллинвуд через торрент
    Скачать бесплатно Добро пожаловать в Коллинвуд
    Добро пожаловать в Коллинвуд скачать торрент
    Добро пожаловать в Коллинвуд смотреть онлайн
    Cкачать фильм Добро пожаловать в Коллинвуд бесплатно
    Добро пожаловать в Коллинвуд скачать торрент в хорошем качестве
    Добро пожаловать в Коллинвуд смотреть онлайн бесплатно в хорошем качестве


    Вы не можете начинать темы
    Вы не можете отвечать на сообщения
    Вы не можете редактировать свои сообщения
    Вы не можете удалять свои сообщения
    Вы не можете голосовать в опросах
    Вы не можете прикреплять файлы к сообщениям
    Вы можете скачивать файлы