2 сезон

iTunes

MVO

1

2 сезон

iTunes

iTunes

1 сезон

RePack

30

Ultimate

ВАЖНО

ИГРА 18+

pack

RePack

MK11
pack

Легкие деньги

RePack

jed

RePack

fifa19

RePack

RDR2

RePack

NEED FOR SPEED™ PAYBACK

4 сезон

9 сезон

Бесстыжие 9 сезон

Все сериалы

все сериалы на PB.wtf

RePack

FAR CRY 5

Anonymous, доброе утро, мы не успеваем собрать деньги на оплату серверов за декабрь и январь, помогите нам пожалуйста в это трудное время. В качестве благодарности мы отключим Вам всю рекламу на сайте (укажите свой ник в строку Ваше имя)!

×
  
Magnet ссылка

Детройт / Detroit (Кэтрин Бигелоу) [2017, триллер, драма, криминал, история, BDRip-AVC] [MVO] - ExKinoRay pb.wtf

Детройт через торрент pb.wtf

Размер: 3.87 GB | Добавлен: 2 года 9 мес. назад | Торрент скачан:231 раз
Скачать  

27-03-2018 22:11 Детройт Скачать торрент  

Информация о фильме
Название: Детройт
Оригинальное название: Detroit
Год выпуска: 2017
Жанр: Триллер, драма, криминал, история
Страна: США
Студия: Annapurna Pictures, First Light Production, Page 1
Продолжительность: 02:23:00
Перевод: Профессиональный (многоголосый, закадровый) | Jaskier
Режиссер: Кэтрин Бигелоу
В ролях: Джон Бойега, Уилл Поултер, Элджи Смит, Джейкоб Латимор, Джейсон Митчелл, Ханна Мюррэй, Джек Рейнор, Кейтлин Дивер, Бен О Тул, Джон Красински

Описание:
Сюжет расскажет о реальном историческом событии, поводом для которого стал полицейский рейд в Детройте в июле 1967 года. Рейд привел к одному из самых больших восстаний на территории Соединенных Штатов, в результате которого десятки тысяч разъяренных жителей вышли из-под контроля властей, а город захлестнула волна крови, насилия и налетов. Последствием разрушительных беспорядков стала гибель 43 человек.

rating

Файл
Формат: MKV
Качество: BDRip-AVC
Видео: MPEG-4 AVC, 1024x552 (1.85:1), 23.976 fps, ~ 2995 kbps avg, 0.221 bit/pixel
Аудио 1: 48 kHz, AC3, 2.0, 448 Kbps | RUS |
Аудио 2: 48 kHz, AC3, 5.1, 448 Kbps | ENG |
Субтитры: Английские

Сохранены оригинальные чаптеры как на Blu-Ray.

Без какой-либо рекламы!
General
Unique ID : 195259900813919248618481932865638769601 (0x92E5B061C03D26B0B0602B15CF6423C1)
Complete name : D:\Detroit.2017.BDRip.AVC.ExKinoRay.mkv
Format : Matroska
Format version : Version 2
File size : 3.87 GiB
Duration : 2 h 23 min
Overall bit rate : 3 871 kb/s
Movie name : Detroit (2017) from ExKinoRay
Encoded date : UTC 2018-03-27 20:55:17
Writing application : mkvmerge v5.6.0 ('Kenya Kane') built on May 27 2012 16:44:04
Writing library : libebml v1.2.3 + libmatroska v1.3.0

Video
ID : 1
Format : AVC
Format/Info : Advanced Video Codec
Format profile : High@L4.1
Format settings, CABAC : Yes
Format settings, ReFrames : 14 frames
Codec ID : V_MPEG4/ISO/AVC
Duration : 2 h 23 min
Bit rate : 2 995 kb/s
Width : 1 024 pixels
Height : 552 pixels
Display aspect ratio : 1.85:1
Frame rate mode : Constant
Frame rate : 23.976 (23976/1000) FPS
Color space : YUV
Chroma subsampling : 4:2:0
Bit depth : 8 bits
Scan type : Progressive
Bits/(Pixel*Frame) : 0.221
Stream size : 2.90 GiB (75%)
Title : Enigma
Writing library : x264 core 152 r2851 ba24899
Encoding settings : cabac=1 / ref=14 / deblock=1:-2:-2 / analyse=0x3:0x113 / me=umh / subme=11 / psy=1 / psy_rd=0.95:0.10 / mixed_ref=1 / me_range=32 / chroma_me=1 / trellis=2 / 8x8dct=1 / cqm=0 / deadzone=21,11 / fast_pskip=0 / chroma_qp_offset=-3 / threads=12 / lookahead_threads=3 / sliced_threads=0 / nr=0 / decimate=0 / interlaced=0 / bluray_compat=0 / constrained_intra=0 / bframes=14 / b_pyramid=2 / b_adapt=2 / b_bias=0 / direct=3 / weightb=1 / open_gop=0 / weightp=2 / keyint=240 / keyint_min=23 / scenecut=40 / intra_refresh=0 / rc_lookahead=40 / rc=2pass / mbtree=0 / bitrate=2995 / ratetol=1.0 / qcomp=0.65 / qpmin=0 / qpmax=51 / qpstep=4 / cplxblur=20.0 / qblur=0.5 / vbv_maxrate=50000 / vbv_bufsize=62500 / nal_hrd=none / filler=0 / ip_ratio=1.35 / pb_ratio=1.30 / aq=3:0.80
Language : English
Default : Yes
Forced : No
Color range : Limited
Color primaries : BT.709
Transfer characteristics : BT.709
Matrix coefficients : BT.709

Audio #1
ID : 2
Format : AC-3
Format/Info : Audio Coding 3
Mode extension : CM (complete main)
Format settings, Endianness : Big
Codec ID : A_AC3
Duration : 2 h 23 min
Bit rate mode : Constant
Bit rate : 448 kb/s
Channel(s) : 6 channels
Channel positions : Front: L C R, Side: L R, LFE
Sampling rate : 48.0 kHz
Frame rate : 31.250 FPS (1536 spf)
Compression mode : Lossy
Stream size : 458 MiB (12%)
Title : MVO (Jaskier)
Language : Russian
Default : Yes
Forced : No

Audio #2
ID : 3
Format : AC-3
Format/Info : Audio Coding 3
Mode extension : CM (complete main)
Format settings, Endianness : Big
Codec ID : A_AC3
Duration : 2 h 23 min
Bit rate mode : Constant
Bit rate : 448 kb/s
Channel(s) : 6 channels
Channel positions : Front: L C R, Side: L R, LFE
Sampling rate : 48.0 kHz
Frame rate : 31.250 FPS (1536 spf)
Compression mode : Lossy
Stream size : 458 MiB (12%)
Language : English
Default : No
Forced : No

Text
ID : 4
Format : UTF-8
Codec ID : S_TEXT/UTF8
Codec ID/Info : UTF-8 Plain Text
Language : English
Default : No
Forced : No

Menu
00:00:00.000 : en:00:00:00.000
00:04:02.784 : en:00:04:02.784
00:09:08.548 : en:00:09:08.548
00:15:03.569 : en:00:15:03.569
00:25:58.348 : en:00:25:58.348
00:32:21.606 : en:00:32:21.606
00:36:06.081 : en:00:36:06.081
00:41:01.751 : en:00:41:01.751
00:49:54.950 : en:00:49:54.950
00:55:24.071 : en:00:55:24.071
00:58:56.241 : en:00:58:56.241
01:06:06.921 : en:01:06:06.921
01:10:42.155 : en:01:10:42.155
01:14:16.369 : en:01:14:16.369
01:25:02.806 : en:01:25:02.806
01:28:46.571 : en:01:28:46.571
01:32:57.322 : en:01:32:57.322
01:39:37.430 : en:01:39:37.430
01:48:53.152 : en:01:48:53.152
01:52:10.974 : en:01:52:10.974
01:59:15.523 : en:01:59:15.523
02:04:45.728 : en:02:04:45.728
02:10:13.222 : en:02:10:13.222
02:14:53.085 : en:02:14:53.085
Релиз от:

Автор релиза: pb.wtf



Скачать Детройт через торрент https://i100.fastpic.ru/big/2018/0326/fa/e1ee45108c0092297f9f1de0aa1772fa.jpg Скачать фильм Детройт через торрент бесплантно в хорошем качестве Описание: Сюжет расскажет о реальном историческом событии, поводом для которого стал полицейский рейд в Детройте в июле 1967 года. Рейд ... 8.6 10 5
Info! Золотая раздача, скачанное не засчитывается.
Торрент: Зарегистрирован [2018-03-27 22:11] · скачан: 231 раз
Статус: √ проверено
Размер: 3.87 GB
Как cкачать? Как скачать Детройт через торрент | UTorrent

28-11-2019 20:33  

Отключить всю рекламу на сайте

    Дорогой пользователь! Огромная просьба, поблагодарите релизера, оцените раздачу и оставьте свои комментарий, если Вы скачали Детройт через торрент бесплатно! Внесите свою лепту в развитие PiratBit!
    Комментировать посты могут только пользователи прошедшие не сложную регистрацию
    Показать сообщения:    

    Детройт через торрент
    Скачать бесплатно Детройт
    Детройт скачать торрент
    Детройт смотреть онлайн
    Cкачать фильм Детройт бесплатно
    Детройт скачать торрент в хорошем качестве
    Детройт смотреть онлайн бесплатно в хорошем качестве


    Вы не можете начинать темы
    Вы не можете отвечать на сообщения
    Вы не можете редактировать свои сообщения
    Вы не можете удалять свои сообщения
    Вы не можете голосовать в опросах
    Вы не можете прикреплять файлы к сообщениям
    Вы можете скачивать файлы