Всегда рабочее зеркало без VPN и Proxy просто перед .vidak.icu напиши любое слово или цифру, Пример http://oftr.vidak.icu

Лицензия

MVO

1 сезон

1

1 сезон

iTunes

1 сезон

13

1 сезон

Deluxe

pack

Рекомендуем

Repack

30

ВАЖНО

RePack

MK11

RePack

jed

RePack

fifa19

RePack

RDR2

RePack

NEED FOR SPEED™ PAYBACK

Кинопоиск HD

6 сезон

 Острые козырьки 6 сезон

Все сериалы

все сериалы на PB.wtf

RePack

FAR CRY 5
  
Magnet ссылка

Крадущийся тигр, затаившийся дракон / Wo hu cang long (Энг Ли) [2000, фэнтези, боевик, мелодрама, UHD BDRemux 2160p] MVO + AVO [Лицензия] pb.wtf

Крадущийся тигр, затаившийся дракон через торрент pb.wtf

Размер: 53.54 GB | Добавлен: 4 года 4 мес. назад | Торрент скачан:21 раз
Смотреть онлайн Крадущийся тигр, затаившийся дракон | Скачать    Ребята, помогите собрать деньги на оплату серверов!!!

28-03-2018 03:53 Крадущийся тигр, затаившийся дракон Скачать торрент  

Крадущийся тигр, затаившийся дракон / Wo hu cang long

Год выпуска: 2000
Страна: Тайвань, Гонконг, США, Китай
Жанр: фэнтези, боевик, мелодрама, приключения
Продолжительность: 02:00:01
Перевод: Профессиональный многоголосый, профессиональный двухголосый, авторский
Субтитры: Русские (Full, Forced), английские (SDH, Forced), немецкие
Режиссер: Энг Ли
В ролях:

Чоу Юнь-Фат (Master Li Mu Bai), Мишель Йео (Yu Shu Lien), Чжан Цзыи (Jen Yu (Mandarin version) / Jiao Long (English dubbed version)), Чан Чэнь (Lo «Dark Cloud» / Luo Xiao Hu), Лун Сихун (Sir Te), Чэн Пэйпэй (Jade Fox), Фа Зенг Ли (Governor Yu), Сянь Гао (Bo), Хай Янь (Madame Yu), Де Минг Ванг (Police Inspector Tsai / Prefect Cai Qiu), Ли Ли (May), Хуан Суин (Auntie Wu)
Описание:
Легендарный мастер боевых искусств Ли Мубай отправляется на поиски магического меча зеленой стали, похищенного тайными злоумышленниками. Впереди его ждет зловещая фигура давнего противника, наемного убийцы, который после долгого отсутствия снова вернулся на тропу войны...
Рейтинг:

MPAA: PG-13 - Детям до 13 лет просмотр не желателен
Качество: UHD BDRemux 2160p
Формат: MKV
Видео: HEVC, 56.0 Мбит/с, 3840x2160, 23.976 Кадр/с
Аудио: Russian:DD 5.1 / 48 kHz / 640 kbps / 16 bits (BD EUR)
Аудио: Russian:DD 5.1 / 48 kHz / 384 kbps / 16 bits (Ю.Живов)
Аудио: Ukrainian:DD 5.1 / 48 kHz / 384 kbps / 16 bits [1+1]
Аудио: Ukrainian:DD 5.1 / 48 kHz / 384 kbps / 16 bits [K1]
Аудио: English:DTS-HD MA 5.1 / 48 kHz / 2148 kbps / 16 bits (DTS Embedded: DTS 5.1 / 48 kHz / 1509 kbps / 16 bits) DUB
Аудио: German:DTS-HD MA 5.1 / 48 kHz / 3840 kbps / 16 bits (DTS Embedded: DTS 5.1 / 48 kHz / 1509 kbps / 16 bits) DUB
Навигация по главам: есть
Complete name : H:\Movies\Tiger.and.Dragon.2000.German.Dubbed.DTSHD.DL.2160p.UHD.BluRay.HDR.HEVC.Remux-SpaceHD13.mkv
Format : Matroska
Format version : Version 4 / Version 2
File size : 53.5 GiB
Duration : 2 h 0 min
Overall bit rate : 63.8 Mb/s
Encoded date : UTC 2018-03-27 12:10:30
Writing application : mkvmerge v20.0.0 ('I Am The Sun') 64-bit
Writing library : libebml v1.3.5 + libmatroska v1.4.8

Video
ID : 1
Format : HEVC
Format/Info : High Efficiency Video Coding
Format profile : Main [email protected]@High
Codec ID : V_MPEGH/ISO/HEVC
Duration : 2 h 0 min
Bit rate : 56.0 Mb/s
Width : 3 840 pixels
Height : 2 160 pixels
Display aspect ratio : 16:9
Frame rate mode : Constant
Frame rate : 23.976 (24000/1001) FPS
Color space : YUV
Chroma subsampling : 4:2:0 (Type 2)
Bit depth : 10 bits
Bits/(Pixel*Frame) : 0.282
Stream size : 47.0 GiB (88%)
Title : Tiger.and.Dragon.2000.German.Dubbed.DTSHD.DL.2160p.UHD.BluRay.HDR.HEVC.Remux-SpaceHD13
Language : English
Default : No
Forced : No
Color range : Limited
Color primaries : BT.2020
Transfer characteristics : PQ
Matrix coefficients : BT.2020 non-constant
Mastering display color primaries : Display P3
Mastering display luminance : min: 0.0050 cd/m2, max: 4000 cd/m2
Maximum Content Light Level : 8985 cd/m2
Maximum Frame-Average Light Level : 215 cd/m2

Audio #1
ID : 2
Format : AC-3
Format/Info : Audio Coding 3
Codec ID : A_AC3
Duration : 2 h 0 min
Bit rate mode : Constant
Bit rate : 640 kb/s
Channel(s) : 6 channels
Channel positions : Front: L C R, Side: L R, LFE
Sampling rate : 48.0 kHz
Frame rate : 31.250 FPS (1536 SPF)
Bit depth : 16 bits
Compression mode : Lossy
Stream size : 550 MiB (1%)
Title : Tiger.and.Dragon.2000.German.Dubbed.DTSHD.DL.2160p.UHD.BluRay.HDR.HEVC.Remux-SpaceHD13.(BD EUR)
Language : Russian
Service kind : Complete Main
Default : Yes
Forced : No

Audio #2
ID : 3
Format : AC-3
Format/Info : Audio Coding 3
Codec ID : A_AC3
Duration : 2 h 0 min
Bit rate mode : Constant
Bit rate : 384 kb/s
Channel(s) : 6 channels
Channel positions : Front: L C R, Side: L R, LFE
Sampling rate : 48.0 kHz
Frame rate : 31.250 FPS (1536 SPF)
Bit depth : 16 bits
Compression mode : Lossy
Stream size : 330 MiB (1%)
Title : Tiger.and.Dragon.2000.German.Dubbed.DTSHD.DL.2160p.UHD.BluRay.HDR.HEVC.Remux-SpaceHD13.(Ю.Живов)
Language : Russian
Service kind : Complete Main
Default : No
Forced : No

Audio #3
ID : 4
Format : AC-3
Format/Info : Audio Coding 3
Codec ID : A_AC3
Duration : 2 h 0 min
Bit rate mode : Constant
Bit rate : 384 kb/s
Channel(s) : 6 channels
Channel positions : Front: L C R, Side: L R, LFE
Sampling rate : 48.0 kHz
Frame rate : 31.250 FPS (1536 SPF)
Bit depth : 16 bits
Compression mode : Lossy
Stream size : 330 MiB (1%)
Title : Tiger.and.Dragon.2000.German.Dubbed.DTSHD.DL.2160p.UHD.BluRay.HDR.HEVC.Remux-SpaceHD13.[1+1]
Language : Ukrainian
Service kind : Complete Main
Default : No
Forced : No

Audio #4
ID : 5
Format : AC-3
Format/Info : Audio Coding 3
Codec ID : A_AC3
Duration : 2 h 0 min
Bit rate mode : Constant
Bit rate : 384 kb/s
Channel(s) : 6 channels
Channel positions : Front: L C R, Side: L R, LFE
Sampling rate : 48.0 kHz
Frame rate : 31.250 FPS (1536 SPF)
Bit depth : 16 bits
Compression mode : Lossy
Stream size : 330 MiB (1%)
Title : Tiger.and.Dragon.2000.German.Dubbed.DTSHD.DL.2160p.UHD.BluRay.HDR.HEVC.Remux-SpaceHD13.[K1]
Language : Ukrainian
Service kind : Complete Main
Default : No
Forced : No

Audio #5
ID : 6
Format : DTS
Format/Info : Digital Theater Systems
Format profile : MA / Core
Codec ID : A_DTS
Duration : 2 h 0 min
Bit rate mode : Variable / Constant
Bit rate : 3 840 kb/s / 1 509 kb/s
Channel(s) : 6 channels
Channel positions : Front: L C R, Side: L R, LFE
Sampling rate : 48.0 kHz
Frame rate : 93.750 FPS (512 SPF)
Bit depth : 24 bits
Compression mode : Lossless / Lossy
Stream size : 3.17 GiB (6%)
Title : Tiger.and.Dragon.2000.German.Dubbed.DTSHD.DL.2160p.UHD.BluRay.HDR.HEVC.Remux-SpaceHD13
Language : German
Default : No
Forced : No

Audio #6
ID : 7
Format : DTS
Format/Info : Digital Theater Systems
Format profile : MA / Core
Codec ID : A_DTS
Duration : 2 h 0 min
Bit rate mode : Variable / Constant
Bit rate : 2 148 kb/s / 1 509 kb/s
Channel(s) : 6 channels
Channel positions : Front: L C R, Side: L R, LFE
Sampling rate : 48.0 kHz
Frame rate : 93.750 FPS (512 SPF)
Bit depth : 16 bits
Compression mode : Lossless / Lossy
Stream size : 1.80 GiB (3%)
Title : Tiger.and.Dragon.2000.German.Dubbed.DTSHD.DL.2160p.UHD.BluRay.HDR.HEVC.Remux-SpaceHD13
Language : English
Default : No
Forced : No

Text #1
ID : 8
Format : PGS
Muxing mode : zlib
Codec ID : S_HDMV/PGS
Codec ID/Info : Picture based subtitle format used on BDs/HD-DVDs
Duration : 1 h 53 min
Bit rate : 36.1 kb/s
Count of elements : 1778
Stream size : 29.4 MiB (0%)
Title : Russian
Language : Russian
Default : Yes
Forced : No

Text #2
ID : 9
Format : PGS
Muxing mode : zlib
Codec ID : S_HDMV/PGS
Codec ID/Info : Picture based subtitle format used on BDs/HD-DVDs
Duration : 1 h 53 min
Bit rate : 36.1 kb/s
Count of elements : 1778
Stream size : 29.4 MiB (0%)
Title : Russian-Full
Language : Russian
Default : No
Forced : No

Text #3
ID : 10
Format : PGS
Muxing mode : zlib
Codec ID : S_HDMV/PGS
Codec ID/Info : Picture based subtitle format used on BDs/HD-DVDs
Duration : 1 h 53 min
Bit rate : 25.2 kb/s
Count of elements : 1894
Stream size : 20.4 MiB (0%)
Title : Deutsch
Language : German
Default : No
Forced : No

Text #4
ID : 11
Format : PGS
Muxing mode : zlib
Codec ID : S_HDMV/PGS
Codec ID/Info : Picture based subtitle format used on BDs/HD-DVDs
Duration : 1 h 57 min
Bit rate : 25.5 kb/s
Count of elements : 2213
Stream size : 21.4 MiB (0%)
Title : English SDH
Language : English
Default : No
Forced : No

Text #5
ID : 12
Format : PGS
Muxing mode : zlib
Codec ID : S_HDMV/PGS
Codec ID/Info : Picture based subtitle format used on BDs/HD-DVDs
Duration : 1 h 57 min
Bit rate : 21.8 kb/s
Count of elements : 1777
Stream size : 18.3 MiB (0%)
Title : English
Language : English
Default : No
Forced : No

Text #6
ID : 13
Format : PGS
Muxing mode : zlib
Codec ID : S_HDMV/PGS
Codec ID/Info : Picture based subtitle format used on BDs/HD-DVDs
Duration : 10 min 49 s
Bit rate : 358 b/s
Count of elements : 4
Stream size : 28.4 KiB (0%)
Title : English Forced
Language : English
Default : No
Forced : No

Menu
00:00:00.000 : en:Chapter 01
00:08:07.612 : en:Chapter 02
00:15:09.283 : en:Chapter 03
00:23:38.291 : en:Chapter 04
00:32:53.888 : en:Chapter 05
00:36:58.216 : en:Chapter 06
00:42:54.321 : en:Chapter 07
00:48:56.683 : en:Chapter 08
00:53:30.874 : en:Chapter 09
01:13:12.012 : en:Chapter 10
01:20:01.963 : en:Chapter 11
01:29:49.258 : en:Chapter 12
01:35:09.620 : en:Chapter 13
01:43:46.428 : en:Chapter 14
01:47:30.277 : en:Chapter 15
01:52:06.386 : en:Chapter 16
pb.wtf



Скачать Крадущийся тигр, затаившийся дракон через торрент https://i99.fastpic.ru/big/2018/0328/eb/6170d3c7fee3e6c1f0f7d8b1798e62eb.jpg Скачать, смотреть онлайн Крадущийся тигр, затаившийся дракон бесплантно в хорошем качестве Описание: Легендарный мастер боевых искусств Ли Мубай отправляется на поиски магического меча зеленой стали, похищенного тайными ... 10 10 3
Info! Золотая раздача, скачанное не засчитывается.
Торрент: Зарегистрирован [2018-03-28 03:53] · скачан: 21 раз
Статус: √ проверено
Размер: 53.54 GB
Как cкачать? Как скачать Крадущийся тигр, затаившийся дракон через торрент | UTorrent

% Раздел Тема Автор DL S | L
Азиатские фильмы [ 2.91 GB ] Крадущийся тигр затаившийся дракон / Wo hu cang long [2000 BDRip-AVC ] Russian Mafia Скачать
1 | 0
Фильмы (Blu-ray, BD-Remux, HDDVD) [ 32.12 GB ] Крадущийся тигр затаившийся дракон / Wo hu cang long [2000 Blu-ray CEE] MVO Russian Mafia Скачать
1 | 0
Фильмы до 2000 г. [ 2.18 GB ] Крадущийся тигр затаившийся дракон / Wo hu cang long [2000 BDRip] MVO + AVO gunk Скачать
1 | 0

28-11-2019 20:33  

Отключить вcю реклaмy на сайте

    Дорогой пользователь! Огромная просьба, поблагодарите релизера, оцените раздачу и оставьте свои комментарий, если Вы скачали Крадущийся тигр, затаившийся дракон через торрент бесплатно!
    Комментировать посты могут только пользователи прошедшие не сложную регистрацию
    Показать сообщения:    

    Крадущийся тигр, затаившийся дракон через торрент
    Скачать бесплатно Крадущийся тигр, затаившийся дракон
    Крадущийся тигр, затаившийся дракон скачать торрент
    Крадущийся тигр, затаившийся дракон смотреть онлайн
    Cкачать фильм Крадущийся тигр, затаившийся дракон бесплатно
    Крадущийся тигр, затаившийся дракон скачать торрент в хорошем качестве
    Крадущийся тигр, затаившийся дракон смотреть онлайн бесплатно в хорошем качестве


    Вы не можете начинать темы
    Вы не можете отвечать на сообщения
    Вы не можете редактировать свои сообщения
    Вы не можете удалять свои сообщения
    Вы не можете голосовать в опросах
    Вы не можете прикреплять файлы к сообщениям
    Вы можете скачивать файлы