2 сезон

iTunes

MVO

1

2 сезон

iTunes

1 сезон

1 сезон

RePack

30

Ultimate

ВАЖНО

ИГРА 18+

pack

RePack

MK11
pack

Легкие деньги

RePack

jed

RePack

fifa19

RePack

RDR2

RePack

NEED FOR SPEED™ PAYBACK

4 сезон

9 сезон

Бесстыжие 9 сезон

Все сериалы

все сериалы на PB.wtf

RePack

FAR CRY 5

Anonymous, добрый вечер, мы не успеваем собрать деньги на оплату серверов за декабрь и январь, помогите нам пожалуйста в это трудное время. В качестве благодарности мы отключим Вам всю рекламу на сайте (укажите свой ник в строку Ваше имя)!

×
  
Magnet ссылка

Колесо чудес / Wonder Wheel (Вуди Аллен) [2017, драма, BDRip-AVC] DUB [iTunes] pb.wtf

Колесо чудес через торрент pb.wtf

Размер: 2.29 GB | Добавлен: 2 года 10 мес. назад | Торрент скачан:235 раз
Скачать  

28-03-2018 05:28 Колесо чудес Скачать торрент  

Колесо чудес / Wonder WheelГод выпуска: 2017
Страна: США
Жанр: драма
Продолжительность: 01:41:01
Перевод: Дублированный | iTunes
Субтитры: Русские, английские

Режиссер: Вуди Аллен

rating

В ролях:

Джеймс Белуши, Джуно Темпл, Джастин Тимберлейк, Кейт Уинслет, Макс Казелла, Джек Гор, Дэвид Крамхолц, Роберт С. Кирк, Томми Нохилли, Тони Сирико

Описание:

История страсти, жестокости и предательства, рассказывающая о четырех героях, чьи судьбы переплелись среди бурной жизни знаменитого парка развлечений. Действие разворачивается на живописном Кони Айленде в Нью-Йорке.

Качество: BDRip-AVC
Формат: MKV

Видео: 1024x512 (2:1), 23,976 fps, x264 ~2 404 kbps avg, 0.191 bit/pixel
Аудио#1: 48 kHz, AC3 Dolby Digital, 3/2 (L,C,R,l,r) + LFE ch, ~384.00 kbps avg | RUS (iTunes)
Аудио#2: 48 kHz, AC3 Dolby Digital, 3/2 (L,C,R,l,r) + LFE ch, ~448.00 kbps avg | ENG
скриншот   скриншот   скриншот   скриншот  

Общее
Уникальный идентификатор : 241334904329615043588025483884122593762 (0xB58F697174454D6FBD7F23C7F22FD9E2)
Полное имя : E:OlLanDGroupWonder.Wheel.2017.BDRip(AVC).OlLanDGroup.mkv
Формат : Matroska
Версия формата : Version 2
Размер файла : 2,29 Гбайт
Продолжительность : 1 ч. 41 м.
Общий поток : 3239 Кбит/сек
Название фильма : Wonder.Wheel.2017 #TorpedoUK#
Дата кодирования : UTC 2018-03-27 16:29:25
Программа кодирования : mkvmerge v7.8.0 ('River Man') 32bit built on Apr 3 2015 12:11:22
Библиотека кодирования : libebml v1.3.1 + libmatroska v1.4.2
Обложка : Yes
Attachments : small_cover.jpg / small_cover_land.jpg / cover.jpg / cover_land.jpg

Видео
Идентификатор : 1
Формат : AVC
Формат/Информация : Advanced Video Codec
Профиль формата : High@L4.1
Параметр CABAC формата : Да
Параметр ReFrames формата : 10 кадров
Идентификатор кодека : V_MPEG4/ISO/AVC
Продолжительность : 1 ч. 41 м.
Битрейт : 2404 Кбит/сек
Ширина : 1024 пикселя
Высота : 512 пикселей
Соотношение сторон : 2,000
Режим частоты кадров : Постоянный
Частота кадров : 23,976 (24000/1001) кадра/сек
Цветовое пространство : YUV
Субдискретизация насыщенности : 4:2:0
Битовая глубина : 8 бит
Тип развёртки : Прогрессивная
Бит/(Пиксели*Кадры) : 0.191
Размер потока : 1,65 Гбайт (72%)
Библиотека кодирования : x264 core 146 r2538 121396c
Настройки программы : cabac=1 / ref=10 / deblock=1:-3:-3 / analyse=0x3:0x133 / me=umh / subme=11 / psy=1 / psy_rd=1.00:0.03 / mixed_ref=1 / me_range=48 / chroma_me=1 / trellis=2 / 8x8dct=1 / cqm=0 / deadzone=21,11 / fast_pskip=1 / chroma_qp_offset=-3 / threads=6 / lookahead_threads=1 / sliced_threads=0 / nr=0 / decimate=1 / interlaced=0 / bluray_compat=0 / constrained_intra=0 / bframes=10 / b_pyramid=2 / b_adapt=2 / b_bias=0 / direct=3 / weightb=1 / open_gop=0 / weightp=2 / keyint=240 / keyint_min=23 / scenecut=40 / intra_refresh=0 / rc_lookahead=40 / rc=2pass / mbtree=0 / bitrate=2404 / ratetol=1.0 / qcomp=0.60 / qpmin=0 / qpmax=69 / qpstep=4 / cplxblur=20.0 / qblur=0.5 / vbv_maxrate=50000 / vbv_bufsize=62500 / nal_hrd=none / filler=0 / ip_ratio=1.40 / pb_ratio=1.30 / aq=1:1.00
Язык : English
Default : Да
Forced : Нет

Аудио #1
Идентификатор : 2
Формат : AC-3
Формат/Информация : Audio Coding 3
Расширение режима : CM (complete main)
Параметр Endianness формата : Big
Идентификатор кодека : A_AC3
Продолжительность : 1 ч. 41 м.
Вид битрейта : Постоянный
Битрейт : 384 Кбит/сек
Каналы : 6 каналов
Расположение каналов : Front: L C R, Side: L R, LFE
Частота : 48,0 КГц
Частота кадров : 31,250 кадров/сек (1536 spf)
Битовая глубина : 16 бит
Метод сжатия : С потерями
Размер потока : 277 Мбайт (12%)
Заголовок : iTunes
Язык : Russian
Default : Да
Forced : Нет

Аудио #2
Идентификатор : 3
Формат : AC-3
Формат/Информация : Audio Coding 3
Расширение режима : CM (complete main)
Параметр Endianness формата : Big
Идентификатор кодека : A_AC3
Продолжительность : 1 ч. 41 м.
Вид битрейта : Постоянный
Битрейт : 448 Кбит/сек
Каналы : 6 каналов
Расположение каналов : Front: L C R, Side: L R, LFE
Частота : 48,0 КГц
Частота кадров : 31,250 кадров/сек (1536 spf)
Битовая глубина : 16 бит
Метод сжатия : С потерями
Размер потока : 324 Мбайт (14%)
Заголовок : Original
Язык : English
Default : Нет
Forced : Нет

Текст #1
Идентификатор : 4
Формат : UTF-8
Идентификатор кодека : S_TEXT/UTF8
Идентификатор кодека/Информация : UTF-8 Plain Text
Заголовок : Full
Язык : Russian
Default : Нет
Forced : Нет

Текст #2
Идентификатор : 5
Формат : UTF-8
Идентификатор кодека : S_TEXT/UTF8
Идентификатор кодека/Информация : UTF-8 Plain Text
Заголовок : Full
Язык : English
Default : Нет
Forced : Нет

Текст #3
Идентификатор : 6
Формат : UTF-8
Идентификатор кодека : S_TEXT/UTF8
Идентификатор кодека/Информация : UTF-8 Plain Text
Заголовок : SDH
Язык : English
Default : Нет
Forced : Нет

Меню
00:00:00.000 : en:Chapter 01
00:06:07.450 : en:Chapter 02
00:12:22.366 : en:Chapter 03
00:17:53.322 : en:Chapter 04
00:23:46.425 : en:Chapter 05
00:30:24.072 : en:Chapter 06
00:35:28.543 : en:Chapter 07
00:40:06.904 : en:Chapter 08
00:46:12.352 : en:Chapter 09
00:51:53.735 : en:Chapter 10
00:58:04.898 : en:Chapter 11
01:01:55.086 : en:Chapter 12
01:05:18.497 : en:Chapter 13
01:09:38.465 : en:Chapter 14
01:12:15.039 : en:Chapter 15
01:17:58.840 : en:Chapter 16
01:24:03.747 : en:Chapter 17
01:28:39.188 : en:Chapter 18
01:35:05.282 : en:Chapter 19
01:37:57.288 : en:Chapter 20
01:41:00.220 : en:Chapter 21

pb.wtf



Скачать Колесо чудес через торрент http://lostpix.com/img/2018-03/27/6jecvm6fup30cihjntnidezmf.jpg Скачать фильм Колесо чудес через торрент бесплантно в хорошем качестве Описание: История страсти, жестокости и предательства, рассказывающая о четырех героях, чьи судьбы переплелись среди бурной жизни ... 8.4 10 9
Торрент: Зарегистрирован [2018-03-28 05:28] · скачан: 235 раз
Статус: √ проверено
Размер: 2.29 GB
Как cкачать? Как скачать Колесо чудес через торрент | UTorrent

% Раздел Тема Автор DL S | L
Фильмы 2017 [DVDrip, WEB-DLRip, HDrip] (DUB, MVO) [ 1.42 GB ] Колесо чудес / Wonder Wheel [2017 BDRip] - Twi7ter Скачать
1 | 0
Фильмы 2017 [DVDrip, WEB-DLRip, HDrip] (DUB, MVO) [ 1.42 GB ] Колесо чудес / Wonder Wheel [2017 BDRip] killermax2013 Скачать
1 | 0
Фильмы (Blu-ray, BD-Remux, HDDVD) [ 27.85 GB ] Колесо чудес / Wonder Wheel [2017 BD Remux 1080p] bober100 Скачать
1 | 0
Фильмы [HD 720p, 1080p] (Хороший звук DUB, MVO) [ 7.57 GB ] Колесо чудес / Wonder Wheel [2017 BDRip 1080p] bober100 Скачать
1 | 0

28-11-2019 20:33  

Отключить всю рекламу на сайте

28-03-2018 11:53 Колесо чудес Скачать торрент  

Стоит смотреть ?pb.wtf



    Дорогой пользователь! Огромная просьба, поблагодарите релизера, оцените раздачу и оставьте свои комментарий, если Вы скачали Колесо чудес через торрент бесплатно! Внесите свою лепту в развитие PiratBit!
    Комментировать посты могут только пользователи прошедшие не сложную регистрацию
    Показать сообщения:    

    Колесо чудес через торрент
    Скачать бесплатно Колесо чудес
    Колесо чудес скачать торрент
    Колесо чудес смотреть онлайн
    Cкачать фильм Колесо чудес бесплатно
    Колесо чудес скачать торрент в хорошем качестве
    Колесо чудес смотреть онлайн бесплатно в хорошем качестве


    Вы не можете начинать темы
    Вы не можете отвечать на сообщения
    Вы не можете редактировать свои сообщения
    Вы не можете удалять свои сообщения
    Вы не можете голосовать в опросах
    Вы не можете прикреплять файлы к сообщениям
    Вы можете скачивать файлы