Ссылка на приватное зеркало нашего сайта всего за 1$. Внимание количество ограничено!!!

2 сезон

iTunes

1 сезон

1

2 сезон

2 сезон

iTunes

1 сезон

RePack

30

Ultimate

ВАЖНО

ИГРА 18+

pack

RePack

MK11
pack

Забери бонус

RePack

jed

!!Акция!!

Alien_Rage

RePack

fifa19

RePack

Assassins Creed: Odyssey

RePack

NEED FOR SPEED™ PAYBACK

4 сезон

9 сезон

Бесстыжие 9 сезон

Все сериалы

все сериалы на PB.wtf

RePack

FAR CRY 5
  

9-1-1 служба спасения / 9-1-1 / Сезон: 1 / Серии: 1-10 из 10 (Брэдли Букер) [2018, Драма, WEB-DL 1080p] MVO [NewStudio] pb.wtf

9-1-1 служба спасения через торрент pb.wtf

Размер: 20.2 GB | Добавлен: 2 года 7 мес. назад | Торрент скачан:12 раз
Скачать  

28-03-2018 06:09 9-1-1 служба спасения Скачать торрент  

9-1-1 служба спасения / 9-1-1
Год выпуска: 2018
Страна: США
Жанр: Драма
Продолжительность: ~ 00:50:00
Перевод: Профессиональный многоголосый |
Субтитры: отсутствуют

Режиссер: Брэдли Букер

rating

В ролях:

Анджела Бассетт, Конни Бриттон, Корина Мессиа, Бриэль Барбаска, Рэйчел Бритаг, Лондон Чешир, Адина ДеСоуза, Алекс Лойназ

Описание:

Сериал расскажет о работе полицейских, «Скорой помощи» и пожарной службы. Все они выполняют свой долг, часто рискуя жизнью и попадая в самые пугающие и шокирующие ситуации. Смысл их ежедневной работы состоит в охране безопасности улиц и помощи всем, кто в ней нуждается. Полицейские, пожарные и парамедики работают бок о бок в жестких условиях большого города. Эти экстренные службы должны стараться балансировать, спасая тех, кто находится в наиболее уязвимом положении, и при этом решать проблемы в их собственной жизни.

Качество: WEB-DL 1080p
Формат: MKV

Видео: MPEG-4 AVС, ~ 5173 Кбит/с, 1920x1080
Аудио#1: Русский (AC3, 6 ch, 384 Кбит/с)
Аудио#2: английский (AC3, 6 ch, 384 Кбит/с)
скриншот  скриншот  скриншот  

Общее
Уникальный идентификатор : 178844240989321451697542075832149845293 (0x868C25DD724837F8AF1E94CA04C1A52D)
Полное имя : E:\торреннты\9-1-1_1 сезон NewStudio_1080p\9-1-1.s01e01.WEBDL.1080p.NewStudio.TV.byVinT.mkv
Формат : Matroska
Версия формата : Version 4 / Version 2
Размер файла : 1,93 Гбайт
Продолжительность : 46 м. 23 с.
Общий поток : 5943 Кбит/сек
Дата кодирования : UTC 2018-01-10 18:29:45
Программа кодирования : mkvmerge v18.0.0 ('Apricity') 64-bit
Библиотека кодирования : libebml v1.3.5 + libmatroska v1.4.8

Видео
Идентификатор : 1
Формат : AVC
Формат/Информация : Advanced Video Codec
Профиль формата : High@L4
Настройки формата : CABAC / 4 Ref Frames
Параметр CABAC формата : Да
Параметр RefFrames формата : 4 кадра
Идентификатор кодека : V_MPEG4/ISO/AVC
Продолжительность : 46 м. 22 с.
Битрейт : 5173 Кбит/сек
Ширина : 1920 пикселей
Высота : 1080 пикселей
Соотношение сторон : 16:9
Режим частоты кадров : Постоянный
Частота кадров : 23,976 (24000/1001) кадра/сек
Цветовое пространство : YUV
Субдискретизация насыщенности : 4:2:0
Битовая глубина : 8 бит
Тип развёртки : Прогрессивная
Бит/(Пиксели*Кадры) : 0.104
Размер потока : 1,68 Гбайт (87%)
Заголовок : 9-1-1.s01e01.WEBDL.1080p.NewStudio.TV.byVinT
Язык : English
Default : Да
Forced : Нет
Цветовой диапазон : Limited
Основные цвета : BT.709
Характеристики трансфера : BT.709
Коэффициенты матрицы : BT.709

Аудио #1
Идентификатор : 2
Формат : AC-3
Формат/Информация : Audio Coding 3
Идентификатор кодека : A_AC3
Продолжительность : 46 м. 23 с.
Вид битрейта : Постоянный
Битрейт : 384 Кбит/сек
Каналы : 6 каналов
Расположение каналов : Front: L C R, Side: L R, LFE
Частота : 48,0 КГц
Частота кадров : 31,250 кадров/сек (1536 SPF)
Битовая глубина : 16 бит
Метод сжатия : С потерями
Размер потока : 127 Мбайт (6%)
Заголовок : NewStudio.TV
Язык : Russian
ServiceKind/String : Complete Main
Default : Да
Forced : Нет

Аудио #2
Идентификатор : 3
Формат : AC-3
Формат/Информация : Audio Coding 3
Идентификатор кодека : A_AC3
Продолжительность : 46 м. 23 с.
Вид битрейта : Постоянный
Битрейт : 384 Кбит/сек
Каналы : 6 каналов
Расположение каналов : Front: L C R, Side: L R, LFE
Частота : 48,0 КГц
Частота кадров : 31,250 кадров/сек (1536 SPF)
Битовая глубина : 16 бит
Метод сжатия : С потерями
Размер потока : 127 Мбайт (6%)
Заголовок : English
Язык : English
ServiceKind/String : Complete Main
Default : Нет
Forced : Нет

pb.wtf



Скачать 9-1-1 служба спасения через торрент http://i101.fastpic.ru/big/2018/0103/55/462d8e6a273916318c0824172f041255.png Скачать фильм 9-1-1 служба спасения через торрент бесплантно в хорошем качестве Описание: Сериал расскажет о работе полицейских, «Скорой помощи» и пожарной службы. Все они выполняют свой долг, часто рискуя жизнью и ... 10 10 3
Торрент: Зарегистрирован [2018-03-28 06:09] · скачан: 12 раз
Статус: √ проверено
Размер: 20.2 GB
Как cкачать? Как скачать 9-1-1 служба спасения через торрент | qTorrent

% Раздел Тема Автор DL S | L
Зарубежные сериалы [ 38.71 GB ] 9-1-1 служба спасения / 9-1-1 / Сезон: 1 / Серии: 1-10 из 10 [2018 WEB-DL 1080p] MVO [TVShows] bober100 Скачать
1 | 0
Зарубежные сериалы [ 31.45 GB ] 911 служба спасения / 9-1-1 / Сезон: 3 / Серии: 1-10 из 18 [2019 WEB-DL 1080p] MVO [TVShows] bober100 Скачать
2 | 0
Зарубежные сериалы [ 44.16 GB ] 911 служба спасения / 9-1-1 / Сезон: 3 / Серии: 1-18 из 18 [2019 WEB-DL 1080p] MVO [Lostfilm] bober100 Скачать
1 | 0
Зарубежные сериалы [ 9.56 GB ] 911 служба спасения / 9-1-1 / Сезон: 3 / Серии: 1-3 из 18 [2019 WEB-DL 1080p] MVO [HDRezka studio] bober100 Скачать
1 | 0
Зарубежные сериалы [ 47.45 GB ] 911 служба спасения / 9-1-1 / Сезон: 2 / Серии: 1-18 из 18 [2018 WEB-DL 1080p] MVO [TVShows] bober100 Скачать
1 | 0
Зарубежные сериалы [ 32.99 GB ] 911 служба спасения / 9-1-1 / Сезон: 2 / Серии: 1-12 из 16 [2018 WEB-DL 1080p] MVO [Jaskier] bober100 Скачать
1 | 0
Зарубежные сериалы [ 11.69 GB ] 911 служба спасения / 9-1-1 / Сезон: 1 / Серии: 1-10 из 10 [2018 WEB-DL 720p] MVO [Jaskier] bober100 Скачать
1 | 0

28-11-2019 20:33  

Отключить всю рекламу на сайте

    Дорогой пользователь! Огромная просьба, поблагодарите релизера, оцените раздачу и оставьте свои комментарий, если Вы скачали 9-1-1 служба спасения через торрент бесплатно! Внесите свою лепту в развитие PiratBit!
    Комментировать посты могут только пользователи прошедшие не сложную регистрацию
    Показать сообщения:    

    9-1-1 служба спасения через торрент
    Скачать бесплатно 9-1-1 служба спасения
    9-1-1 служба спасения скачать торрент
    9-1-1 служба спасения смотреть онлайн
    Cкачать фильм 9-1-1 служба спасения бесплатно
    9-1-1 служба спасения скачать торрент в хорошем качестве
    9-1-1 служба спасения смотреть онлайн бесплатно в хорошем качестве


    Вы не можете начинать темы
    Вы не можете отвечать на сообщения
    Вы не можете редактировать свои сообщения
    Вы не можете удалять свои сообщения
    Вы не можете голосовать в опросах
    Вы не можете прикреплять файлы к сообщениям
    Вы можете скачивать файлы