Ссылка на приватное зеркало нашего сайта всего за 1$. Внимание количество ограничено!!!

2 сезон

iTunes

1 сезон

1

2 сезон

2 сезон

iTunes

1 сезон

RePack

30

Ultimate

ВАЖНО

ИГРА 18+

pack

RePack

MK11
pack

Забери бонус

RePack

jed

!!Акция!!

Alien_Rage

RePack

fifa19

RePack

Assassins Creed: Odyssey

RePack

NEED FOR SPEED™ PAYBACK

4 сезон

9 сезон

Бесстыжие 9 сезон

Все сериалы

все сериалы на PB.wtf

RePack

FAR CRY 5
  

9-1-1 / 9-1-1 / Сезон: 1 / Серии: 1-10 из 10 (Брэдли Букер) [2018, Драма, WEB-DL 720p] MVO [NewStudio] pb.wtf

9-1-1 через торрент pb.wtf

Размер: 14.76 GB | Добавлен: 2 года 7 мес. назад | Торрент скачан:25 раз
Скачать  

28-03-2018 06:25 9-1-1 Скачать торрент  

9-1-1 / 9-1-1
Год выпуска: 2018
Страна: США
Жанр: Драма
Продолжительность: ~ 00:50:00
Перевод: Профессиональный многоголосый |
Субтитры: отсутствуют

Режиссер: Брэдли Букер

rating

В ролях:

Анджела Бассетт, Конни Бриттон, Корина Мессиа, Бриэль Барбаска, Рэйчел Бритаг, Лондон Чешир, Адина ДеСоуза, Алекс Лойназ

Описание:

Сериал расскажет о работе полицейских, «Скорой помощи» и пожарной службы. Все они выполняют свой долг, часто рискуя жизнью и попадая в самые пугающие и шокирующие ситуации. Смысл их ежедневной работы состоит в охране безопасности улиц и помощи всем, кто в ней нуждается. Полицейские, пожарные и парамедики работают бок о бок в жестких условиях большого города. Эти экстренные службы должны стараться балансировать, спасая тех, кто находится в наиболее уязвимом положении, и при этом решать проблемы в их собственной жизни.

Качество: WEB-DL 720p
Формат: MKV

Видео: MPEG-4 AVС, ~ 4096 Кбит/с, 1280x720
Аудио#1: Русский (AC3, 6 ch, 384 Кбит/с)
Аудио#2: английский (AC3, 6 ch, 384 Кбит/с)
скриншот  скриншот  скриншот  

Общее
Уникальный идентификатор : 208655377860314059363402182543386564418 (0x9CF9906421420858BB24A5DE35175742)
Полное имя : E:\9-1-1 (Season 01) Newstudio 720\9-1-1.s01e01.WEBDL.720p.NewStudio.TV.mkv
Формат : Matroska
Версия формата : Version 4 / Version 2
Размер файла : 1,57 Гбайт
Продолжительность : 46 м. 23 с.
Общий поток : 4835 Кбит/сек
Дата кодирования : UTC 2018-01-10 18:56:23
Программа кодирования : mkvmerge v18.0.0 ('Apricity') 64-bit
Библиотека кодирования : libebml v1.3.5 + libmatroska v1.4.8

Видео
Идентификатор : 1
Формат : AVC
Формат/Информация : Advanced Video Codec
Профиль формата : High@L3.1
Настройки формата : 2 Ref Frames
Параметр CABAC формата : Нет
Параметр RefFrames формата : 2 кадра
Идентификатор кодека : V_MPEG4/ISO/AVC
Продолжительность : 46 м. 22 с.
Битрейт : 4096 Кбит/сек
Ширина : 1280 пикселей
Высота : 720 пикселей
Соотношение сторон : 16:9
Режим частоты кадров : Постоянный
Частота кадров : 23,976 (24000/1001) кадра/сек
Цветовое пространство : YUV
Субдискретизация насыщенности : 4:2:0
Битовая глубина : 8 бит
Тип развёртки : Прогрессивная
Бит/(Пиксели*Кадры) : 0.184
Размер потока : 1,32 Гбайт (84%)
Язык : English
Default : Да
Forced : Нет
Цветовой диапазон : Limited
Основные цвета : BT.709
Характеристики трансфера : BT.709
Коэффициенты матрицы : BT.709

Аудио #1
Идентификатор : 2
Формат : AC-3
Формат/Информация : Audio Coding 3
Идентификатор кодека : A_AC3
Продолжительность : 46 м. 23 с.
Вид битрейта : Постоянный
Битрейт : 384 Кбит/сек
Каналы : 6 каналов
Расположение каналов : Front: L C R, Side: L R, LFE
Частота : 48,0 КГц
Частота кадров : 31,250 кадров/сек (1536 SPF)
Битовая глубина : 16 бит
Метод сжатия : С потерями
Размер потока : 127 Мбайт (8%)
Заголовок : NewStudio.TV.byVinT
Язык : Russian
ServiceKind/String : Complete Main
Default : Да
Forced : Нет

Аудио #2
Идентификатор : 3
Формат : AC-3
Формат/Информация : Audio Coding 3
Идентификатор кодека : A_AC3
Продолжительность : 46 м. 23 с.
Вид битрейта : Постоянный
Битрейт : 384 Кбит/сек
Каналы : 6 каналов
Расположение каналов : Front: L C R, Side: L R, LFE
Частота : 48,0 КГц
Частота кадров : 31,250 кадров/сек (1536 SPF)
Битовая глубина : 16 бит
Метод сжатия : С потерями
Размер потока : 127 Мбайт (8%)
Заголовок : English
Язык : English
ServiceKind/String : Complete Main
Default : Нет
Forced : Нет

pb.wtf



Скачать 9-1-1 через торрент http://i101.fastpic.ru/big/2018/0103/55/462d8e6a273916318c0824172f041255.png Скачать фильм 9-1-1 через торрент бесплантно в хорошем качестве Описание: Сериал расскажет о работе полицейских, «Скорой помощи» и пожарной службы. Все они выполняют свой долг, часто рискуя жизнью и ... 10 10 3
Торрент: Зарегистрирован [2018-03-28 06:25] · скачан: 25 раз
Статус: √ проверено
Размер: 14.76 GB
Как cкачать? Как скачать 9-1-1 через торрент | qTorrent

% Раздел Тема Автор DL S | L
Шерлок [ 10.03 GB ] Шерлок / Sherlock / Сезон: 1-3 / Серии: 1-9 из 9 [2010-2014 HDTVRip] [Первый канал] killermax2013 Скачать
1 | 0
Зарубежные сериалы [ 14.03 GB ] Почему женщины убивают / Why Women Kill / Сезон: 1 / Серии: 1-9 из 10 [2019 WEB-DL 720p] MVO [Lostfilm] bober100 Скачать
1 | 0
Зарубежные сериалы [ 10.7 GB ] Страшные истории в двух предложениях / Two Sentence Horror Stories / Сезон: 2 / Серии: 1-9 из 9 [2019 WEBRip 1080p] [MVO] killermax2013 Скачать
1 | 0
Зарубежные сериалы [ 14.05 GB ] Охотник за разумом / Mindhunter / Сезон: 2 / Серии: 1-9 из 9 [2019 WEB-DL 1080p] MVO [Jaskier] bober100 Скачать
1 | 0
Зарубежные сериалы [ 33.27 GB ] Становясь богом в центральной Флориде / On becoming a god in central Florida / Сезон: 1 / Серии: 1-8 из 9 [2019 WEBRip 1080p] MVO [HDRezka Studio] bober100 Скачать
1 | 0
Аудио и видео ролики (Приколы и юмор) [ 5.28 GB ] Наркоман Павлик / Сезон: 7 / Серии: 1-9 из 10 [2019 короткометражный WEB-DL 1080p] killermax2013 Скачать
1 | 0
Зарубежные сериалы [ 33.79 GB ] Джессика Джонс / Jessica Jones / Сезон: 1 / Серии: 1-9 из 13 [2015 BDRip 1080p] MVO [TVShows] bober100 Скачать
1 | 0

28-11-2019 20:33  

Отключить всю рекламу на сайте

    Дорогой пользователь! Огромная просьба, поблагодарите релизера, оцените раздачу и оставьте свои комментарий, если Вы скачали 9-1-1 через торрент бесплатно! Внесите свою лепту в развитие PiratBit!
    Комментировать посты могут только пользователи прошедшие не сложную регистрацию
    Показать сообщения:    

    9-1-1 через торрент
    Скачать бесплатно 9-1-1
    9-1-1 скачать торрент
    9-1-1 смотреть онлайн
    Cкачать фильм 9-1-1 бесплатно
    9-1-1 скачать торрент в хорошем качестве
    9-1-1 смотреть онлайн бесплатно в хорошем качестве


    Вы не можете начинать темы
    Вы не можете отвечать на сообщения
    Вы не можете редактировать свои сообщения
    Вы не можете удалять свои сообщения
    Вы не можете голосовать в опросах
    Вы не можете прикреплять файлы к сообщениям
    Вы можете скачивать файлы