Ссылка на приватное зеркало нашего сайта всего за 1$. Внимание количество ограничено!!!

2 сезон

iTunes

1 сезон

1

2 сезон

2 сезон

iTunes

1 сезон

RePack

30

Новинка

ВАЖНО

ИГРА 18+

pack

RePack

MK11
pack

Забери бонус

RePack

jed

!!Акция!!

Alien_Rage

RePack

fifa19

RePack

Assassins Creed: Odyssey

RePack

NEED FOR SPEED™ PAYBACK

4 сезон

9 сезон

Бесстыжие 9 сезон

Все сериалы

все сериалы на PB.wtf

RePack

FAR CRY 5
  

Пожизненный приговор / Life Sentence / Сезон: 1 / Серии: 1-13 из 13 (Тесса Блейк, Норман Бакли, Джон Т. Кречмер) [2018, Драма, комедия, WEB-DLRip] [MVO] (Jaskier) pb.wtf

Пожизненный приговор через торрент pb.wtf

Размер: 6.35 GB | Добавлен: 2 года 5 мес. назад | Торрент скачан:15 раз
Скачать  

28-03-2018 13:23 Пожизненный приговор Скачать торрент  

Пожизненный приговор | Life Sentence • Год выпуска: 2018
• Страна: США
• Жанр: Драма, комедия
• Продолжительность: ~ 00:45:00
• Перевод: Профессиональный (многоголосый закадровый) | Jaskier

• Режиссёр: Тесса Блейк, Норман Бакли, Джон Т. Кречмер

• В ролях: Люси Хейл, Эллиот Найт, Брук Лайонс, Райли Смит, Джиллиан Вигмэн, Шеннон Чан-Кент, Надеж К Бэйли, Карлос ПенаВега, Джэйсон Блэр и др.

• Описание: Последние 8 лет Стелла Эбботт жила так, словно каждый её день мог стать последним. И в общем, так оно и было: девушка была смертельно больна. Но однажды происходит настоящее чудо — Стелла узнаёт, что она здорова. После схлынувшей эйфории девушка понимает, что теперь ей предстоит найти своё место в жизни, которую она строила последние несколько лет без оглядки на последствия.



• Качество: WEB-DLRip
• Формат: AVI
• Видео: XviD, ~ 1400 kbps, 720x400 (16:9), 23.976 fps
• Аудио 1: MP3, 48,0 КГц, 2 ch, 128 kbps - Rus
• Аудио 2: MP3, 48,0 КГц, 2 ch, 128 kbps - Eng
• Субтитры: отсутствуют
Переведено и озвучено студией JASKIER
Общее
Полное имя                               : D:\Яскъер\Life Sentence. Season 1 (WEB-DLRip l 400p l Jaskier)\Life.Sentence.S01E01.WEB-DLRip.Rus.Eng.Jaskier.avi
Формат                                   : AVI
Формат/Информация                        : Audio Video Interleave
Размер файла                             : 501 Мбайт
Продолжительность                        : 42 м. 22 с.
Общий поток                              : 1652 Кбит/сек
Программа кодирования                    : VirtualDubMod 1.5.10.3 | www.virtualdub-fr.org || (build 2550/release)
Библиотека кодирования                   : VirtualDubMod build 2550/release

Видео
Идентификатор                            : 0
Формат                                   : MPEG-4 Visual
Профиль формата                          : Advanced Simple@L5
Настройки формата                        : BVOP1 / Custom Matrix
Параметр BVOP формата                    : 1
Параметр QPel формата                    : Нет
Параметр GMC формата                     : Без точки перехода
Параметр матрицы формата                 : Выборочная
Идентификатор кодека                     : XVID
Идентификатор кодека/Подсказка           : XviD
Продолжительность                        : 42 м. 22 с.
Битрейт                                  : 1382 Кбит/сек
Ширина                                   : 720 пикселей
Высота                                   : 400 пикселей
Соотношение сторон                       : 16:9
Частота кадров                           : 23,976 (24000/1001) кадра/сек
Цветовое пространство                    : YUV
Субдискретизация насыщенности            : 4:2:0
Битовая глубина                          : 8 бит
Тип развёртки                            : Прогрессивная
Метод сжатия                             : С потерями
Бит/(Пиксели*Кадры)                      : 0.200
Размер потока                            : 419 Мбайт (84%)
Библиотека кодирования                   : XviD 73

Аудио #1
Идентификатор                            : 1
Формат                                   : MPEG Audio
Версия формата                           : Version 1
Профиль формата                          : Layer 3
Настройки формата                        : Joint stereo / MS Stereo
Идентификатор кодека                     : 55
Идентификатор кодека/Подсказка           : MP3
Продолжительность                        : 42 м. 22 с.
Вид битрейта                             : Постоянный
Битрейт                                  : 128 Кбит/сек
Каналы                                   : 2 канала
Частота                                  : 48,0 КГц
Метод сжатия                             : С потерями
Размер потока                            : 38,8 Мбайт (8%)
Выравнивание                             : Соединение по промежуткам
Продолжительность промежутка             : 42  мс. (1,00 видеокадр)
Время предзагрузки промежутка            : 504  мс.

Аудио #2
Идентификатор                            : 2
Формат                                   : MPEG Audio
Версия формата                           : Version 1
Профиль формата                          : Layer 3
Настройки формата                        : Joint stereo / MS Stereo
Идентификатор кодека                     : 55
Идентификатор кодека/Подсказка           : MP3
Продолжительность                        : 42 м. 22 с.
Вид битрейта                             : Постоянный
Битрейт                                  : 128 Кбит/сек
Каналы                                   : 2 канала
Частота                                  : 48,0 КГц
Метод сжатия                             : С потерями
Размер потока                            : 38,8 Мбайт (8%)
Выравнивание                             : Соединение по промежуткам
Продолжительность промежутка             : 42  мс. (1,00 видеокадр)
Время предзагрузки промежутка            : 504  мс.
скриншот  скриншот  скриншот  
Когда раздача ведётся путём добавления новых серий, при каждом добавлении создётся новый торрент. Чтобы начать докачку новой серии, пользователям необходимо сделать следующее:
(1) остановить скачивание,
(2) удалить старый торрент у себя из клиента (старые серии удалять не надо),
(3) скачать новый торрент и запустить его у себя в клиенте вместо старого, при этом указать клиенту путь в старую папку, куда и должно происходить скачивание новых серий.
Ваш клиент при этом должен произвести хеширование (проверку) старой папки (если не производит сам - помогите ему сделать это), и будет докачивать только те серии, которых у вас ещё нет. Старые серии при этом не удаляются, а продолжают раздаваться!
Eсли вы уже удалили старые серии, то предотвратить повторную закачку старых серий можно, отжав галочку в соответсвующих местах при запуске нового торрента. По возможности, желательно не удалять старые серии как можно дольше, чтобы релизёр не столько продолжал раздавать старые серии, а смог сконцентрироваться на новых.
pb.wtf



Скачать Пожизненный приговор через торрент https://i102.fastpic.ru/big/2018/0326/5d/be0a5c8f01c0580e9a681f02778aec5d.png Скачать фильм Пожизненный приговор через торрент бесплантно в хорошем качестве Описание: Последние 8 лет Стелла Эбботт жила так, словно каждый её день мог стать последним. И в общем, так оно и было: девушка была ... 10 10 2
Торрент: Зарегистрирован [2018-06-19 09:45] · скачан: 15 раз
Статус: √ проверено
Размер: 6.35 GB
Как cкачать? Как скачать Пожизненный приговор через торрент | qTorrent

% Раздел Тема Автор DL S | L
Зарубежные сериалы [ 14.68 GB ] Пожизненный приговор / Life Sentence / Сезон: 1 / Серии: 1-13 из 13 [2018 WEB-DL 720p] [MVO] killermax2013 Скачать
1 | 0
Зарубежные сериалы [ 9.12 GB ] Пожизненный приговор / Приговорённая жить / Life Sentence / Сезон: 1 / Серии: 1-13 из 13 [2018 WEB-DLRip] MVO [NewStudio] bober100 Скачать
1 | 0


Последний раз редактировалось: killermax2013 (2018-06-05 19:08), всего редактировалось 3 раз(а)

28-11-2019 20:33  

Отключить всю рекламу на сайте

    Дорогой пользователь! Огромная просьба, поблагодарите релизера, оцените раздачу и оставьте свои комментарий, если Вы скачали Пожизненный приговор через торрент бесплатно! Внесите свою лепту в развитие PiratBit!
    Комментировать посты могут только пользователи прошедшие не сложную регистрацию
    Показать сообщения:    

    Пожизненный приговор через торрент
    Скачать бесплатно Пожизненный приговор
    Пожизненный приговор скачать торрент
    Пожизненный приговор смотреть онлайн
    Cкачать фильм Пожизненный приговор бесплатно
    Пожизненный приговор скачать торрент в хорошем качестве
    Пожизненный приговор смотреть онлайн бесплатно в хорошем качестве


    Вы не можете начинать темы
    Вы не можете отвечать на сообщения
    Вы не можете редактировать свои сообщения
    Вы не можете удалять свои сообщения
    Вы не можете голосовать в опросах
    Вы не можете прикреплять файлы к сообщениям
    Вы можете скачивать файлы