Ссылка на приватное зеркало всего за 1$. Внимание количество ограничено!!!

OK

1+1

iTunes

мы

OK

1

WEB-DLRip

Джокер

Пифагор

Ведьмак / The Witcher сериал

Лицензия

ПШазам

ОК

Оно 2

iTunes

30
pack

Вам бонус

ВАЖНО

!!Акция!!

Alien_RageХит недели

RePack

Resident Evil 21

ИГРА 18+

pack

RePack

jed

RePack

fifa19

RePack

Assassins Creed: Odyssey

RePack

NEED FOR SPEED™ PAYBACK

4 сезон

9 сезон

Бесстыжие 9 сезон

Все сериалы

все сериалы на PB.wtf

RePack

FAR CRY 5
  

Профессор Марстон и Чудо-женщины / Professor Marston and the Wonder Women (Анджела Робинсон) [2017, драма, биография, BDRip 1080p] MVO [Лицензия] pb.wtf

Профессор Марстон и Чудо-женщины через торрент pb.wtf

Размер: 11.67 GB | Добавлен: 1 год 9 мес. назад | Торрент скачан:104 раза
Скачать  

29-03-2018 04:42 Профессор Марстон и Чудо-женщины Скачать торрент  

Профессор Марстон и Чудо-женщины / Professor Marston and the Wonder Women
Год выпуска: 2017
Страна: США
Жанр: драма, биография
Продолжительность: 01:48:26
Перевод: Профессиональный многоголосый | Лицензия
Субтитры: Русские (forced, full), английские

Режиссер: Анджела Робинсон

rating

В ролях:

Люк Эванс, Ребекка Холл, Белла Хиткот, Конни Бриттон, Моника Джордано, Джей Джей Филд, Крис Конрой, Оливер Платт, Мэгги Кастл, Алекса Хэвинс

Описание:

Гарвардский ученый-психолог Уильям Марстон оставил след в истории, как изобретатель детектора лжи и пионер теории феминизма. Создатель комиксов Макс Гейнс предложил Марстону, высоко ставившему роль комиксов в поп-культурном и идеалогическом пространстве, придумать супергероя слабого пола.

Качество: BDRip 1080p
Формат: MKV

Видео: MPEG-4 AVC, 1920x804, 13.3 Mbit/s, 23.976 fps
Аудио#1: 48 kHz, AC3, 5.1, 640 Kbps | Лицензия | RUS |
Аудио#2: 48 kHz, DTS, 5.1, 1510 Kbps | Оригинал | ENG |
скриншот   скриншот   скриншот   скриншот   скриншот  

General
Unique ID : 83952467100596182535362494278422365020 (0x3F28A83314890DB325CB85777636035C)
Complete name : C:Video111Professor.Marston.and.the.Wonder.Women.2017.BDRip.1080p.ExKinoRay.mkv
Format : Matroska
Format version : Version 4 / Version 2
File size : 11.7 GiB
Duration : 1 h 48 min
Overall bit rate : 15.4 Mb/s
Movie name : Professor Marston and the Wonder Women 2017 from ExKinoRay
Encoded date : UTC 2018-03-28 18:16:51
Writing application : mkvmerge v21.0.0 ('Tardigrades Will Inherit The Earth') 64-bit
Writing library : libebml v1.3.5 + libmatroska v1.4.8

Video
ID : 1
Format : AVC
Format/Info : Advanced Video Codec
Format profile : High@L4.1
Format settings : CABAC / 5 Ref Frames
Format settings, CABAC : Yes
Format settings, ReFrames : 5 frames
Codec ID : V_MPEG4/ISO/AVC
Duration : 1 h 48 min
Bit rate : 13.3 Mb/s
Width : 1 920 pixels
Height : 804 pixels
Display aspect ratio : 2.40:1
Frame rate mode : Constant
Frame rate : 23.976 (24000/1001) FPS
Color space : YUV
Chroma subsampling : 4:2:0
Bit depth : 8 bits
Scan type : Progressive
Bits/(Pixel*Frame) : 0.358
Stream size : 10.0 GiB (86%)
Writing library : x264 core 152 r2851+58 429492e t_mod_Custom [8-bit@all X86_64]
Encoding settings : cabac=1 / ref=5 / deblock=1:-3:-3 / analyse=0x3:0x133 / me=umh / subme=10 / psy=1 / fade_compensate=0.00 / psy_rd=1.00:0.00 / mixed_ref=1 / me_range=32 / chroma_me=1 / trellis=2 / 8x8dct=1 / cqm=0 / deadzone=21,11 / fast_pskip=0 / chroma_qp_offset=-2 / threads=8 / lookahead_threads=1 / sliced_threads=0 / nr=0 / decimate=0 / interlaced=0 / bluray_compat=0 / constrained_intra=0 / fgo=0 / bframes=9 / b_pyramid=2 / b_adapt=2 / b_bias=0 / direct=3 / weightb=1 / open_gop=0 / weightp=2 / keyint=250 / keyint_min=23 / scenecut=40 / intra_refresh=0 / rc_lookahead=150 / rc=crf / mbtree=0 / crf=17.3000 / qcomp=0.70 / qpmin=0:0:0 / qpmax=69:69:69 / qpstep=4 / vbv_maxrate=62500 / vbv_bufsize=78125 / crf_max=0.0 / nal_hrd=none / filler=0 / ip_ratio=1.30 / pb_ratio=1.20 / aq=3:0.75 / aq-sensitivity=10.00 / aq-factor=1.00:1.00:1.00 / aq2=0 / aq3=0 / zones=410,683,crf=15/133082,133199,crf=16/135804,136021,crf=16/136022,145661,crf=16.5/145661,146038,crf=16
Language : English
Default : Yes
Forced : No

Audio #1
ID : 2
Format : AC-3
Format/Info : Audio Coding 3
Codec ID : A_AC3
Duration : 1 h 48 min
Bit rate mode : Constant
Bit rate : 640 kb/s
Channel(s) : 6 channels
Channel positions : Front: L C R, Side: L R, LFE
Sampling rate : 48.0 kHz
Frame rate : 31.250 FPS (1536 SPF)
Bit depth : 16 bits
Compression mode : Lossy
Stream size : 496 MiB (4%)
Title : MVO [License]
Language : Russian
Service kind : Complete Main
Default : Yes
Forced : Yes

Audio #2
ID : 3
Format : DTS
Format/Info : Digital Theater Systems
Codec ID : A_DTS
Duration : 1 h 48 min
Bit rate mode : Constant
Bit rate : 1 509 kb/s
Channel(s) : 6 channels
Channel positions : Front: L C R, Side: L R, LFE
Sampling rate : 48.0 kHz
Frame rate : 93.750 FPS (512 SPF)
Bit depth : 24 bits
Compression mode : Lossy
Stream size : 1.14 GiB (10%)
Title : Original
Language : English
Default : No
Forced : No

Text #1
ID : 4
Format : UTF-8
Codec ID : S_TEXT/UTF8
Codec ID/Info : UTF-8 Plain Text
Duration : 1 h 47 min
Bit rate : 1 b/s
Count of elements : 28
Stream size : 976 Bytes (0%)
Title : Forced
Language : Russian
Default : Yes
Forced : Yes

Text #2
ID : 5
Format : UTF-8
Codec ID : S_TEXT/UTF8
Codec ID/Info : UTF-8 Plain Text
Duration : 1 h 47 min
Bit rate : 65 b/s
Count of elements : 1133
Stream size : 51.4 KiB (0%)
Title : Full
Language : Russian
Default : No
Forced : No

Text #3
ID : 6
Format : UTF-8
Codec ID : S_TEXT/UTF8
Codec ID/Info : UTF-8 Plain Text
Duration : 1 h 41 min
Bit rate : 52 b/s
Count of elements : 1110
Stream size : 39.0 KiB (0%)
Title : Full
Language : English
Default : No
Forced : No

Text #4
ID : 7
Format : UTF-8
Codec ID : S_TEXT/UTF8
Codec ID/Info : UTF-8 Plain Text
Duration : 1 h 45 min
Bit rate : 56 b/s
Count of elements : 1309
Stream size : 43.7 KiB (0%)
Title : SDH
Language : English
Default : No
Forced : No

Menu
00:00:00.000 : en:00:00:00.000
00:07:48.176 : en:00:07:48.176
00:15:25.758 : en:00:15:25.758
00:21:42.635 : en:00:21:42.635
00:29:05.577 : en:00:29:05.577
00:33:03.190 : en:00:33:03.190
00:39:15.687 : en:00:39:15.687
00:46:07.056 : en:00:46:07.056
00:51:06.063 : en:00:51:06.063
00:57:12.763 : en:00:57:12.763
01:03:03.822 : en:01:03:03.822
01:09:11.147 : en:01:09:11.147
01:14:45.898 : en:01:14:45.898
01:20:18.605 : en:01:20:18.605
01:26:24.221 : en:01:26:24.221
01:34:09.394 : en:01:34:09.394

pb.wtf



Скачать Профессор Марстон и Чудо-женщины через торрент http://lostpix.com/img/2018-03/28/ceo9nskudfnl2irsmjps7gj7x.jpg Скачать фильм Профессор Марстон и Чудо-женщины через торрент бесплантно в хорошем качестве Описание: Гарвардский ученый-психолог Уильям Марстон оставил след в истории, как изобретатель детектора лжи и пионер теории феминизма. ... 10 10 3
Торрент: Зарегистрирован [2018-03-29 04:42] · скачан: 104 раз
Статус: √ проверено
Размер: 11.67 GB
Как cкачать? Как скачать Профессор Марстон и Чудо-женщины через торрент | qTorrent

% Раздел Тема Автор DL S | L
Фильмы 2017 [DVDrip, WEB-DLRip, HDrip] (DUB, MVO) [ 1.46 GB ] Профессор Марстон и Чудо-женщины / Professor Marston and the Wonder Women [2017 биография BDRip] MVO [] bober100 Скачать
1 | 0
Фильмы (Blu-ray, BD-Remux, HDDVD) [ 23.23 GB ] Профессор Марстон и Чудо-женщины / Professor Marston and the Wonder Women [2017 биография BD Remux 1080p] MVO [] bober100 Скачать
1 | 0
Фильмы [HD 720p, 1080p] (Хороший звук DUB, MVO) [ 4.86 GB ] Профессор Марстон и Чудо-женщины / Professor Marston and the Wonder Women [2017 биография BDRip 720p] MVO [] bober100 Скачать
1 | 0

28-11-2019 20:33  

Отключить всю рекламу на сайте

    Дорогой пользователь! Огромная просьба, поблагодарите релизера, оцените раздачу и оставьте свои комментарий, если Вы скачали Профессор Марстон и Чудо-женщины через торрент бесплатно! Внесите свою лепту в развитие PiratBit!
    Комментировать посты могут только пользователи прошедшие не сложную регистрацию
    Показать сообщения:    

    Профессор Марстон и Чудо-женщины через торрент
    Скачать бесплатно Профессор Марстон и Чудо-женщины
    Профессор Марстон и Чудо-женщины скачать торрент
    Профессор Марстон и Чудо-женщины смотреть онлайн
    Cкачать фильм Профессор Марстон и Чудо-женщины бесплатно
    Профессор Марстон и Чудо-женщины скачать торрент в хорошем качестве
    Профессор Марстон и Чудо-женщины смотреть онлайн бесплатно в хорошем качестве


    Вы не можете начинать темы
    Вы не можете отвечать на сообщения
    Вы не можете редактировать свои сообщения
    Вы не можете удалять свои сообщения
    Вы не можете голосовать в опросах
    Вы не можете прикреплять файлы к сообщениям
    Вы можете скачивать файлы