Ссылка на приватное зеркало всего за 1$. Внимание количество ограничено!!!

OK

1+1

iTunes

мы

OK

1

WEB-DLRip

Джокер

Пифагор

Ведьмак / The Witcher сериал

Лицензия

ПШазам

ОК

Оно 2

iTunes

30
pack

Вам бонус

ВАЖНО

!!Акция!!

Alien_RageХит недели

RePack

Resident Evil 21

ИГРА 18+

pack

RePack

jed

RePack

fifa19

RePack

Assassins Creed: Odyssey

RePack

NEED FOR SPEED™ PAYBACK

4 сезон

9 сезон

Бесстыжие 9 сезон

Все сериалы

все сериалы на PB.wtf

RePack

FAR CRY 5
  

Профессор Марстон и Чудо-женщины / Professor Marston and the Wonder Women (Анджела Робинсон) [2017, драма, биография, BD Remux 1080p] MVO [Лицензия] pb.wtf

Профессор Марстон и Чудо-женщины через торрент pb.wtf

Размер: 23.23 GB | Добавлен: 1 год 9 мес. назад | Торрент скачан:34 раза
Скачать  

29-03-2018 05:13 Профессор Марстон и Чудо-женщины Скачать торрент  

Профессор Марстон и Чудо-женщины / Professor Marston and the Wonder Women
Год выпуска: 2017
Страна: США
Жанр: драма, биография
Продолжительность: 01:48:26
Перевод: Профессиональный многоголосый | Лицензия
Субтитры: Русские (forced, full), английские

Режиссер: Анджела Робинсон

rating

В ролях:

Люк Эванс, Ребекка Холл, Белла Хиткот, Конни Бриттон, Моника Джордано, Джей Джей Филд, Крис Конрой, Оливер Платт, Мэгги Кастл, Алекса Хэвинс

Описание:

Гарвардский ученый-психолог Уильям Марстон оставил след в истории, как изобретатель детектора лжи и пионер теории феминизма. Создатель комиксов Макс Гейнс предложил Марстону, высоко ставившему роль комиксов в поп-культурном и идеалогическом пространстве, придумать супергероя слабого пола.

Качество: BD Remux 1080p
Формат: MKV

Видео: MPEG-4 AVC, 1920x1080, 26.9 Mbit/s, 23.976 fps
Аудио#1: 48 kHz, AC3, 5.1, 640 Kbps | Лицензия | RUS |
Аудио#2: 48 kHz, DTS-HD MA, 5.1, 3155 Kbps | Оригинал | ENG |
скриншот   скриншот   скриншот   скриншот   скриншот  

General
Unique ID : 161519174182867550047237707682368418705 (0x7983761F4D9B8DA5A07CE79B6A0F7391)
Complete name : C:Video111Professor.Marston.and.the.Wonder.Women.2017.BDREMUX.1080p.ExKinoRay.mkv
Format : Matroska
Format version : Version 4 / Version 2
File size : 23.2 GiB
Duration : 1 h 48 min
Overall bit rate mode : Variable
Overall bit rate : 30.7 Mb/s
Movie name : Professor Marston and the Wonder Women 2017 from ExKinoRay
Encoded date : UTC 2018-03-28 20:42:44
Writing application : mkvmerge v21.0.0 ('Tardigrades Will Inherit The Earth') 64-bit
Writing library : libebml v1.3.5 + libmatroska v1.4.8

Video
ID : 1
Format : AVC
Format/Info : Advanced Video Codec
Format profile : High@L4.1
Format settings : CABAC / 2 Ref Frames
Format settings, CABAC : Yes
Format settings, ReFrames : 2 frames
Codec ID : V_MPEG4/ISO/AVC
Duration : 1 h 48 min
Bit rate mode : Variable
Bit rate : 26.9 Mb/s
Width : 1 920 pixels
Height : 1 080 pixels
Display aspect ratio : 16:9
Frame rate mode : Constant
Frame rate : 23.976 (24000/1001) FPS
Color space : YUV
Chroma subsampling : 4:2:0
Bit depth : 8 bits
Scan type : Progressive
Bits/(Pixel*Frame) : 0.540
Stream size : 20.4 GiB (88%)
Language : English
Default : Yes
Forced : No

Audio #1
ID : 2
Format : AC-3
Format/Info : Audio Coding 3
Codec ID : A_AC3
Duration : 1 h 48 min
Bit rate mode : Constant
Bit rate : 640 kb/s
Channel(s) : 6 channels
Channel positions : Front: L C R, Side: L R, LFE
Sampling rate : 48.0 kHz
Frame rate : 31.250 FPS (1536 SPF)
Bit depth : 16 bits
Compression mode : Lossy
Stream size : 496 MiB (2%)
Title : MVO [License]
Language : Russian
Service kind : Complete Main
Default : Yes
Forced : Yes

Audio #2
ID : 3
Format : DTS
Format/Info : Digital Theater Systems
Format profile : MA / Core
Codec ID : A_DTS
Duration : 1 h 48 min
Bit rate mode : Variable / Constant
Bit rate : 3 155 kb/s / 1 509 kb/s
Channel(s) : 6 channels
Channel positions : Front: L C R, Side: L R, LFE
Sampling rate : 48.0 kHz
Frame rate : 93.750 FPS (512 SPF)
Bit depth : 24 bits
Compression mode : Lossless / Lossy
Stream size : 2.39 GiB (10%)
Title : Original
Language : English
Default : No
Forced : No

Text #1
ID : 4
Format : UTF-8
Codec ID : S_TEXT/UTF8
Codec ID/Info : UTF-8 Plain Text
Duration : 1 h 47 min
Bit rate : 1 b/s
Count of elements : 28
Stream size : 976 Bytes (0%)
Title : Forced
Language : Russian
Default : Yes
Forced : Yes

Text #2
ID : 5
Format : UTF-8
Codec ID : S_TEXT/UTF8
Codec ID/Info : UTF-8 Plain Text
Duration : 1 h 47 min
Bit rate : 65 b/s
Count of elements : 1133
Stream size : 51.4 KiB (0%)
Title : Full
Language : Russian
Default : No
Forced : No

Text #3
ID : 6
Format : UTF-8
Codec ID : S_TEXT/UTF8
Codec ID/Info : UTF-8 Plain Text
Duration : 1 h 41 min
Bit rate : 52 b/s
Count of elements : 1110
Stream size : 39.0 KiB (0%)
Title : Full
Language : English
Default : No
Forced : No

Text #4
ID : 7
Format : UTF-8
Codec ID : S_TEXT/UTF8
Codec ID/Info : UTF-8 Plain Text
Duration : 1 h 45 min
Bit rate : 56 b/s
Count of elements : 1309
Stream size : 43.7 KiB (0%)
Title : SDH
Language : English
Default : No
Forced : No

Menu
00:00:00.000 : en:00:00:00.000
00:07:48.176 : en:00:07:48.176
00:15:25.758 : en:00:15:25.758
00:21:42.635 : en:00:21:42.635
00:29:05.577 : en:00:29:05.577
00:33:03.190 : en:00:33:03.190
00:39:15.687 : en:00:39:15.687
00:46:07.056 : en:00:46:07.056
00:51:06.063 : en:00:51:06.063
00:57:12.763 : en:00:57:12.763
01:03:03.822 : en:01:03:03.822
01:09:11.147 : en:01:09:11.147
01:14:45.898 : en:01:14:45.898
01:20:18.605 : en:01:20:18.605
01:26:24.221 : en:01:26:24.221
01:34:09.394 : en:01:34:09.394

pb.wtf



Скачать Профессор Марстон и Чудо-женщины через торрент http://lostpix.com/img/2018-03/28/ceo9nskudfnl2irsmjps7gj7x.jpg Скачать фильм Профессор Марстон и Чудо-женщины через торрент бесплантно в хорошем качестве Описание: Гарвардский ученый-психолог Уильям Марстон оставил след в истории, как изобретатель детектора лжи и пионер теории феминизма. ... 9.2 10 5
Торрент: Зарегистрирован [2018-03-29 05:13] · скачан: 34 раз
Статус: √ проверено
Размер: 23.23 GB
Как cкачать? Как скачать Профессор Марстон и Чудо-женщины через торрент | qTorrent

% Раздел Тема Автор DL S | L
Фильмы 2017 [DVDrip, WEB-DLRip, HDrip] (DUB, MVO) [ 1.46 GB ] Профессор Марстон и Чудо-женщины / Professor Marston and the Wonder Women [2017 биография BDRip] MVO [] bober100 Скачать
1 | 0
Фильмы [HD 720p, 1080p] (Хороший звук DUB, MVO) [ 4.86 GB ] Профессор Марстон и Чудо-женщины / Professor Marston and the Wonder Women [2017 биография BDRip 720p] MVO [] bober100 Скачать
1 | 0
Фильмы [HD 720p, 1080p] (Хороший звук DUB, MVO) [ 11.67 GB ] Профессор Марстон и Чудо-женщины / Professor Marston and the Wonder Women [2017 биография BDRip 1080p] MVO [] bober100 Скачать
1 | 0

28-11-2019 20:33  

Отключить всю рекламу на сайте

    Дорогой пользователь! Огромная просьба, поблагодарите релизера, оцените раздачу и оставьте свои комментарий, если Вы скачали Профессор Марстон и Чудо-женщины через торрент бесплатно! Внесите свою лепту в развитие PiratBit!
    Комментировать посты могут только пользователи прошедшие не сложную регистрацию
    Показать сообщения:    

    Профессор Марстон и Чудо-женщины через торрент
    Скачать бесплатно Профессор Марстон и Чудо-женщины
    Профессор Марстон и Чудо-женщины скачать торрент
    Профессор Марстон и Чудо-женщины смотреть онлайн
    Cкачать фильм Профессор Марстон и Чудо-женщины бесплатно
    Профессор Марстон и Чудо-женщины скачать торрент в хорошем качестве
    Профессор Марстон и Чудо-женщины смотреть онлайн бесплатно в хорошем качестве


    Вы не можете начинать темы
    Вы не можете отвечать на сообщения
    Вы не можете редактировать свои сообщения
    Вы не можете удалять свои сообщения
    Вы не можете голосовать в опросах
    Вы не можете прикреплять файлы к сообщениям
    Вы можете скачивать файлы