Ссылка на приватное зеркало нашего сайта всего за 1$. Внимание количество ограничено!!!

2 сезон

iTunes

1 сезон

1

2 сезон

2 сезон

iTunes

1 сезон

RePack

30

Новинка

ВАЖНО

ИГРА 18+

pack

RePack

MK11
pack

Забери бонус

RePack

jed

!!Акция!!

Alien_Rage

RePack

fifa19

RePack

Assassins Creed: Odyssey

RePack

NEED FOR SPEED™ PAYBACK

4 сезон

9 сезон

Бесстыжие 9 сезон

Все сериалы

все сериалы на PB.wtf

RePack

FAR CRY 5
  

9/11 / 9/11 (Мартин Гиги) [2017, боевик, драма, WEB-DL 1080p] MVO [iTunes] pb.wtf

9 через торрент pb.wtf

Размер: 3.29 GB | Добавлен: 2 года 8 мес. назад | Торрент скачан:111 раз
Скачать  

29-03-2018 09:04 9 Скачать торрент  

9/11 / 9/11Год выпуска: 2017
Страна: США
Жанр: боевик, драма
Продолжительность: 01:28:52
Перевод: Профессиональный многоголосый | iTunes
Субтитры: Английские

Режиссер: Мартин Гиги

rating

В ролях:

Чарли Шин, Вупи Голдберг, Джина Гершон, Луис Гусман, Вуд Харрис, Ольга Фонда, Жаклин Биссет, Билли Мэлоун, Брюс Дэвисон, Фон Чэмберс Уоткинс

Описание:

История о пяти людях с непохожими взглядами и характерами, с разным достатком и статусом, которые оказываются взаперти в одном лифте во время теракта 11 сентября 2001 года. В общей борьбе за выживание каждый из них покажет свое истинное лицо.

Качество: WEB-DL 1080p
Формат: MKV

Видео: MPEG-4 AVC, 1920x800, 4565 Кbit/s, 24.000 fps
Аудио#1: 48 kHz, AC3, 5.1, 384 Kbps | iTunes | RUS |
Аудио#2: 48 kHz, AC3, 5.1, 384 Kbps | Оригинал | ENG |
скриншот   скриншот   скриншот   скриншот   скриншот  

General
Unique ID : 78613171679242560484494988554816994459 (0x3B24589C5EF4303CB08A556F92D03C9B)
Complete name : C:Video111911.2017.WEB-DL.1080p.ExKinoRay.mkv
Format : Matroska
Format version : Version 4 / Version 2
File size : 3.29 GiB
Duration : 1 h 28 min
Overall bit rate : 5 339 kb/s
Movie name : 9/11 2017 from ExKinoRay
Encoded date : UTC 2018-03-29 08:00:22
Writing application : mkvmerge v21.0.0 ('Tardigrades Will Inherit The Earth') 64-bit
Writing library : libebml v1.3.5 + libmatroska v1.4.8

Video
ID : 1
Format : AVC
Format/Info : Advanced Video Codec
Format profile : High@L4
Format settings : CABAC / 5 Ref Frames
Format settings, CABAC : Yes
Format settings, ReFrames : 5 frames
Codec ID : V_MPEG4/ISO/AVC
Duration : 1 h 28 min
Bit rate : 4 569 kb/s
Width : 1 920 pixels
Height : 800 pixels
Display aspect ratio : 2.40:1
Frame rate mode : Constant
Frame rate : 24.000 FPS
Color space : YUV
Chroma subsampling : 4:2:0
Bit depth : 8 bits
Scan type : Progressive
Bits/(Pixel*Frame) : 0.124
Stream size : 2.81 GiB (86%)
Language : English
Default : Yes
Forced : No
Color range : Limited
Color primaries : BT.709
Transfer characteristics : BT.709
Matrix coefficients : BT.709

Audio #1
ID : 2
Format : AC-3
Format/Info : Audio Coding 3
Codec ID : A_AC3
Duration : 1 h 28 min
Bit rate mode : Constant
Bit rate : 384 kb/s
Channel(s) : 6 channels
Channel positions : Front: L C R, Side: L R, LFE
Sampling rate : 48.0 kHz
Frame rate : 31.250 FPS (1536 SPF)
Bit depth : 16 bits
Compression mode : Lossy
Stream size : 242 MiB (7%)
Title : iTunes
Language : Russian
Service kind : Complete Main
Default : Yes
Forced : Yes

Audio #2
ID : 3
Format : AC-3
Format/Info : Audio Coding 3
Codec ID : A_AC3
Duration : 1 h 28 min
Bit rate mode : Constant
Bit rate : 384 kb/s
Channel(s) : 6 channels
Channel positions : Front: L C R, Side: L R, LFE
Sampling rate : 48.0 kHz
Frame rate : 31.250 FPS (1536 SPF)
Bit depth : 16 bits
Compression mode : Lossy
Stream size : 242 MiB (7%)
Title : Original
Language : English
Service kind : Complete Main
Default : No
Forced : No

Text
ID : 4
Format : UTF-8
Codec ID : S_TEXT/UTF8
Codec ID/Info : UTF-8 Plain Text
Duration : 1 h 19 min
Bit rate : 79 b/s
Count of elements : 1353
Stream size : 46.4 KiB (0%)
Title : Full
Language : English
Default : No
Forced : No

Menu
00:00:00.000 : en:Глава 1
00:07:48.583 : en:Глава 2
00:15:14.583 : en:Глава 3
00:23:33.208 : en:Глава 4
00:31:54.666 : en:Глава 5
00:39:00.791 : en:Глава 6
00:46:36.916 : en:Глава 7
00:54:04.332 : en:Глава 8
01:01:51.998 : en:Глава 9
01:09:24.164 : en:Глава 10
01:17:13.496 : en:Глава 11

pb.wtf



Скачать 9 через торрент http://lostpix.com/img/2018-03/29/s4mi2krvlm31x78vkfd7j0qe8.jpg Скачать фильм 9через торрент бесплантно в хорошем качестве Описание: История о пяти людях с непохожими взглядами и характерами, с разным достатком и статусом, которые оказываются взаперти в одном ... 10 10 3
Торрент: Зарегистрирован [2018-03-29 09:04] · скачан: 111 раз
Статус: √ проверено
Размер: 3.29 GB
Как cкачать? Как скачать 9 через торрент | qTorrent

% Раздел Тема Автор DL S | L
Архив (Системные программы) [ 578 MB ] Kaspersky Internet Security 2011 RU [SERVER/DESKTOP] Kaspersky Internet Security 2010 RU [SERVER/DESKTOP] Антивирус Касперского 2011 RU [SERVER/DESKTOP] Антив катя0 Скачать
1 | 0
Зарубежные сериалы [ 1.29 GB ] Смертельная битва: Наследие / Mortal Kombat: Legacy [Сезон: 1 / Серии: 1-9 из 9] [2011 BDRip] Sудья Скачать
1 | 0
Работа с носителями информации [ 1.05 GB ] Nero 9.4.44.0b + Nero Move it 1.5.10.1 + Nero MediaHome 4.5.8.0b + Templates + Nero InCD 6.6.5100 + LightScribe Software [Release: 03.03.2011] [Multi] «anfis_chekho Скачать
1 | 0
Другие симуляторы [ 5.12 GB ] The Sims Medieval 2011 [лицензияMULTI 9Strategy / 3D / Virtual pets] Go[L]dy Скачать
1 | 0
Паки полных порно фильмов [ 11.72 GB ] Wanna Fuck My Daughter Gotta Fuck Me First 1-7910/ Хочешь Трахнуть Мою Дочку - Трахни Сначала Меня 1-7910 [2008 - 2011 г All Sex Movies Legal Teen MILF / Cougar Threesomes & More DVDRip] smaster Скачать
1 | 0
Паки полных порно фильмов [ 12.94 GB ] Докторши 1-9 / Doctor Adventures 1-9 [2008 - 2011 г Gonzo Vignettes Nurses & Doctors Big Boobs DVDRip] smaster Скачать
1 | 0
Наши сериалы [ 11.72 GB ] Тайны следствия / Сезон: 9 Серии: 24 из 24 [2011 SATRip] -=Cherry=- Скачать
1 | 0

28-11-2019 20:33  

Отключить всю рекламу на сайте

    Дорогой пользователь! Огромная просьба, поблагодарите релизера, оцените раздачу и оставьте свои комментарий, если Вы скачали 9 через торрент бесплатно! Внесите свою лепту в развитие PiratBit!
    Комментировать посты могут только пользователи прошедшие не сложную регистрацию
    Показать сообщения:    

    9 через торрент
    Скачать бесплатно 9
    9 скачать торрент
    9 смотреть онлайн
    Cкачать фильм 9 бесплатно
    9 скачать торрент в хорошем качестве
    9 смотреть онлайн бесплатно в хорошем качестве


    Вы не можете начинать темы
    Вы не можете отвечать на сообщения
    Вы не можете редактировать свои сообщения
    Вы не можете удалять свои сообщения
    Вы не можете голосовать в опросах
    Вы не можете прикреплять файлы к сообщениям
    Вы можете скачивать файлы