MEGA SALE -50% FORZA HORIZON 4 ULTIMATE+ВСЕ DLC+ОНЛАЙН всего за 599р. 299 руб. (супер цена). Внимание количество ограничено!!!

iTunes

1+1

iTunes

мы

iTunes

1

iTunes

Чернобыль

1 сезон

Ральф против интернета

Лицензия

ПШазам

Лицензия

Игра престолов

Лицензия

30
pack

ВАЖНО

!!Акция!!

Alien_RageХит недели

RePack

Resident Evil 21

ИГРА 18+

pack

RePack

Metro:Exodus

!!Акция!!

Alien_Rage

RePack

fifa19

RePack

Assassins Creed: Odyssey

RePack

NEED FOR SPEED™ PAYBACK

3 сезон

9 сезон

Бесстыжие 9 сезон

Все сериалы

все сериалы на PB.wtf

RePack

FAR CRY 5
Ребята, катастрофически не хватает 7730р. для оплаты серверов за ИЮЛЬ (всвязи с блокировками трафик упал в 3 раза), 1-2р., выручайте.
  

Форсаж 4 / Fast & Furious (Джастин Лин) [2009 г., Криминал, Боевик, Триллер, Драма, HDRip-AVC, Дубляж] pb.wtf

Форсаж 4 через торрент pb.wtf

Размер: 2.18 GB | Добавлен: 1 год 4 мес. назад | Торрент скачан:6 раз
Скачать  

29-03-2018 13:03 Форсаж 4 Скачать торрент  

Форсаж 4 /
Fast & Furious
Год выпуска: 2009
Страна: США
Жанр: Криминал, Боевик, Триллер, Драма
Продолжительность: 01:46:45
Перевод: Дублированный (BD CEE)
Субтитры: Русские (Форсированные)

Режиссер: Джастин Лин

Премьера в мире: 12 марта 2009

rating

В ролях: Вин Дизель, Пол Уокер, Джордана Брюстер, Галь Гадот, Джон Ортис, Лас Алонсо, Мишель Родригес, Джек Конли, Шей Уигэм, Лиза Лапира и др.

Описание: Когда кривая дорожка заставляет скрывающегося от правосудия Дома Торетто вернуться в Лос-Анджелес, вражда с агентом Брайаном О’Коннером вспыхивает с новой силой. Но у парочки обнаруживается общий противник, и Дому с Брайаном приходится заключить перемирие в надежде одержать над ним победу. Грабя конвои, роя подкопы и пересекая границы, они приходят к идеальной форме отмщения — педали газа, вдавленной до упора.

Доп. информация: В первой картине Уокеру и Дизелю позволяли выполнять многие трюки, поскольку оба тогда не считались звездами. Но к четвертому «Форсажу» актеры стали известны, трюки — сложнее, и студия запретила Уокеру и Дизелю рисковать.
Интересно, что изначально картину намеревались назвать Fast/Furious и поместить заглавие на постере над лицами Уокера и Дизеля, чтобы было ясно, что первый — fast (быстрый), а второй — furious (неистовый). Но этот план отвергли как завиральный. В любом случае, название картины продолжает голливудский курс на отказ от чисел в заглавиях сиквелов, так как они ассоциируются с второсортными подделками (коими часто являются сиквелы с большими числами в названии).
Вин Дизель снял 20 минутный приквел фильма. Он повествует о судьбе таких героев, как Дом, Лэтти и Хан, во временном промежутке между фильмами «Форсаж» (2001) и «Форсаж 4» (2009).
Пол Уокер ездит на Nissan Skyline GT-R, который встречался во второй части фильма.
В одной из сцен, где вертолет ФБР летит над шоссе, слышен разговор по рации (пилота с центром): «База, я Черный Рыцарь, я на пятом шоссе в пяти минутах от Джокера». Явный намёк на фильм «Темный Рыцарь».

Качество: HDRip-AVC
Формат: MKV
Видео кодек: H.264
Аудио кодек: AC3
Видео: 1024х424 (2.40:1), 2535 kbps, 0.244 bit/pixel
Аудио#1: AC3, 48 kHz, 6 ch, 384 kbps - Дублированный (BD CEE)
Релиз от: winchester00100010
General
Unique ID : 202901948417771016242588251766522518138 (0x98A57E6B32FEA755B8D77D385F9A1A7A)
Complete name : D:\Торрент файлы раздач вместе с фильмами\Fast.Furious.2009.HDRip-AVC.mkv
Format : Matroska
Format version : Version 2
File size : 2.18 GiB
Duration : 1 h 46 min
Overall bit rate : 2 921 kb/s
Encoded date : UTC 2018-03-29 12:36:40
Writing application : mkvmerge v5.8.0 ('No Sleep / Pillow') built on Sep 2 2012 15:37:04
Writing library : libebml v1.2.3 + libmatroska v1.3.0

Video
ID : 1
Format : AVC
Format/Info : Advanced Video Codec
Format profile : High@L4.1
Format settings : CABAC / 12 Ref Frames
Format settings, CABAC : Yes
Format settings, ReFrames : 12 frames
Codec ID : V_MPEG4/ISO/AVC
Duration : 1 h 46 min
Bit rate : 2 535 kb/s
Width : 1 024 pixels
Height : 424 pixels
Display aspect ratio : 2.40:1
Frame rate mode : Constant
Frame rate : 23.976 (24000/1001) FPS
Color space : YUV
Chroma subsampling : 4:2:0
Bit depth : 8 bits
Scan type : Progressive
Bits/(Pixel*Frame) : 0.244
Stream size : 1.85 GiB (85%)
Title : Форсаж 4 / Fast & Furious (2009)
Writing library : x264 core 155 r2901 7d0ff22
Encoding settings : cabac=1 / ref=12 / deblock=1:-3:-3 / analyse=0x3:0x113 / me=umh / subme=9 / psy=1 / psy_rd=1.00:0.00 / mixed_ref=1 / me_range=24 / chroma_me=1 / trellis=2 / 8x8dct=1 / cqm=0 / deadzone=21,11 / fast_pskip=0 / chroma_qp_offset=-2 / threads=12 / lookahead_threads=1 / sliced_threads=0 / nr=0 / decimate=0 / interlaced=0 / bluray_compat=0 / constrained_intra=0 / bframes=6 / b_pyramid=2 / b_adapt=2 / b_bias=0 / direct=3 / weightb=1 / open_gop=0 / weightp=2 / keyint=240 / keyint_min=23 / scenecut=40 / intra_refresh=0 / rc_lookahead=40 / rc=2pass / mbtree=0 / bitrate=2535 / ratetol=1.0 / qcomp=0.60 / qpmin=0 / qpmax=69 / qpstep=4 / cplxblur=20.0 / qblur=0.5 / vbv_maxrate=14000 / vbv_bufsize=14000 / nal_hrd=none / filler=0 / ip_ratio=1.40 / pb_ratio=1.30 / aq=1:1.00
Language : English
Default : Yes
Forced : No
Statistics Tags Issue : mkvmerge v21.0.0 ('Tardigrades Will Inherit The Earth') 64-bit 2018-03-29 03:30:33 / mkvmerge v5.8.0 ('No Sleep / Pillow') built on Sep 2 2012 15:37:04 2018-03-29 12:36:40
FromStats_BitRate : 2535068
FromStats_Duration : 01:46:45.399000000
FromStats_FrameCount : 153576
FromStats_StreamSize : 2029765315

Audio
ID : 2
Format : AC-3
Format/Info : Audio Coding 3
Codec ID : A_AC3
Duration : 1 h 46 min
Bit rate mode : Constant
Bit rate : 384 kb/s
Channel(s) : 6 channels
Channel positions : Front: L C R, Side: L R, LFE
Sampling rate : 48.0 kHz
Frame rate : 31.250 FPS (1536 SPF)
Bit depth : 16 bits
Compression mode : Lossy
Stream size : 293 MiB (13%)
Title : Дублированный 5.1 (Blu-ray CEE)
Language : Russian
Service kind : Complete Main
Default : Yes
Forced : Yes

Text
ID : 3
Format : UTF-8
Codec ID : S_TEXT/UTF8
Codec ID/Info : UTF-8 Plain Text
Title : Русские (Форсированные)
Language : Russian
Default : Yes
Forced : Yes

pb.wtf



Скачать Форсаж 4 через торрент https://d.radikal.ru/d42/1803/ce/4fe471c09133.jpg Скачать фильм Форсаж 4 через торрент бесплантно в хорошем качестве Описание: Когда кривая дорожка заставляет скрывающегося от правосудия Дома Торетто вернуться в Лос-Анджелес, вражда с агентом Брайаном ... 5 10 1
Торрент: Зарегистрирован [2018-03-29 13:03] · скачан: 6 раз
Статус: √ проверено
Размер: 2.18 GB
Как cкачать? Как скачать Форсаж 4 через торрент | qTorrent


>> Регистрируемся здесь <<






Отзывы и комментарии о схеме читаем и пишем здесь: ---> Отзывы и комментарии о схеме

Новые благодарочки в телеграм довольных пользователей:
скриншот   скриншот   скриншот   скриншот   скриншот

29-03-2018 15:06 Форсаж 4 Скачать торрент  

Всем приятного просмотра)pb.wtf



30-03-2018 10:22 Форсаж 4 Скачать торрент  

Скачали? Стойте на раздаче как можно больше и дольше, дайте и другим скачать))pb.wtf



    Дорогой пользователь! Огромная просьба, поблагодарите релизера, оцените раздачу и оставьте свои комментарий, если Вы скачали Форсаж 4 через торрент бесплатно! Внесите свою лепту в развитие PiratBit!
    Комментировать посты могут только пользователи прошедшие не сложную регистрацию
    Показать сообщения:    

    Форсаж 4 через торрент
    Скачать бесплатно Форсаж 4
    Форсаж 4 скачать торрент
    Форсаж 4 смотреть онлайн
    Cкачать фильм Форсаж 4 бесплатно
    Форсаж 4 скачать торрент в хорошем качестве
    Форсаж 4 смотреть онлайн бесплатно в хорошем качестве


    Вы не можете начинать темы
    Вы не можете отвечать на сообщения
    Вы не можете редактировать свои сообщения
    Вы не можете удалять свои сообщения
    Вы не можете голосовать в опросах
    Вы не можете прикреплять файлы к сообщениям
    Вы можете скачивать файлы