Ссылка на приватное зеркало нашего сайта всего за 1$. Внимание количество ограничено!!!

2 сезон

iTunes

1 сезон

1

2 сезон

2 сезон

iTunes

1 сезон

RePack

30

Ultimate

ВАЖНО

ИГРА 18+

pack

RePack

MK11
pack

Забери бонус

RePack

jed

!!Акция!!

Alien_Rage

RePack

fifa19

RePack

Assassins Creed: Odyssey

RePack

NEED FOR SPEED™ PAYBACK

4 сезон

9 сезон

Бесстыжие 9 сезон

Все сериалы

все сериалы на PB.wtf

RePack

FAR CRY 5
  

Пожарная часть 19 / Station 19 / Сезон: 1 / Серии: 1-10 из 10 (Пэрис Барклай, Джеймс Хэнлон, Зинга Стюарт) [2018, боевик, триллер, драма, мелодрама, WEBRip] MVO [NewStudio] pb.wtf

Пожарная часть 19 через торрент pb.wtf

Размер: 7.83 GB | Добавлен: 2 года 6 мес. назад | Торрент скачан:45 раз
Скачать  

29-03-2018 14:02 Пожарная часть 19 Скачать торрент  

Пожарная часть 19 / Station 19
Год выпуска: 2018
Страна: США
Жанр: боевик, триллер, драма, мелодрама
Продолжительность: ~ 00:50:00
Перевод: Профессиональный многоголосый |
Субтитры: Русские, английские

Режиссер: Пэрис Барклай, Джеймс Хэнлон, Зинга Стюарт

rating

В ролях:

Джессика Ортиз, Джейсон Уинстон Джордж, Грэй Дэймон, Барретт Досс, Альберто Фрезза, Джей Хейден, Окьерете Онаодован, Даниэль Савре, Мигель Сандовал, Калеб Александр Смит

Описание:

Главные герои - доблестные пожарные из Сиэтла, рискующие жизнью на работе и не жалеющие своих чувств после службы.

Качество: WEBRip (исх. WEBRip AMZN 1080p)
Формат: AVI

Видео: XviD, ~ 2 200 Кбит/с, 720х400
Аудио#1 Russian: 48 kHz, MPEG Layer 3, 2 ch, ~192.00 kbps avg
Аудио#2 English: 48 kHz, MPEG Layer 3, 2 ch, ~192.00 kbps avg
скриншот  скриншот  скриншот  

Общее
Полное имя : D:\Station.19.S01.WEBRip.XviD.NewStudio\Station.19.S01E01.WEBRip.XviD.Rus.Eng.NewStudio.avi
Формат : AVI
Формат/Информация : Audio Video Interleave
Размер файла : 801 Мбайт
Продолжительность : 43 м. 2 с.
Общий поток : 2603 Кбит/сек
Программа кодирования : VirtualDubMod 1.5.10.3 (build 2550/release)
Библиотека кодирования : VirtualDubMod build 2550/release

Видео
Идентификатор : 0
Формат : MPEG-4 Visual
Профиль формата : Advanced Simple@L5
Параметр BVOP формата : 1
Параметр QPel формата : Нет
Параметр GMC формата : Без точки перехода
Параметр матрицы формата : Default (MPEG)
Идентификатор кодека : XVID
Идентификатор кодека/Подсказка : XviD
Продолжительность : 43 м. 2 с.
Битрейт : 2205 Кбит/сек
Ширина : 720 пикселей
Высота : 400 пикселей
Соотношение сторон : 16:9
Частота кадров : 23,976 (23976/1000) кадра/сек
Цветовое пространство : YUV
Субдискретизация насыщенности : 4:2:0
Битовая глубина : 8 бит
Тип развёртки : Прогрессивная
Метод сжатия : С потерями
Бит/(Пиксели*Кадры) : 0.319
Размер потока : 679 Мбайт (85%)
Библиотека кодирования : XviD 1.2.1 (UTC 2008-12-04)

Аудио #1
Идентификатор : 1
Формат : MPEG Audio
Версия формата : Version 1
Профиль формата : Layer 3
Режим : Joint stereo
Расширение режима : MS Stereo
Идентификатор кодека : 55
Идентификатор кодека/Подсказка : MP3
Продолжительность : 43 м. 2 с.
Вид битрейта : Постоянный
Битрейт : 192 Кбит/сек
Каналы : 2 канала
Частота : 48,0 КГц
Метод сжатия : С потерями
Размер потока : 59,1 Мбайт (7%)
Выравнивание : Соединение по промежуткам
Продолжительность промежутка : 42 мс. (1,00 видеокадр)
Время предзагрузки промежутка : 504 мс.
Библиотека кодирования : LAME3.99r
Настройки программы : -m j -V 4 -q 0 -lowpass 18.6 -b 192

Аудио #2
Идентификатор : 2
Формат : MPEG Audio
Версия формата : Version 1
Профиль формата : Layer 3
Режим : Joint stereo
Идентификатор кодека : 55
Идентификатор кодека/Подсказка : MP3
Продолжительность : 43 м. 2 с.
Вид битрейта : Постоянный
Битрейт : 192 Кбит/сек
Каналы : 2 канала
Частота : 48,0 КГц
Метод сжатия : С потерями
Размер потока : 59,1 Мбайт (7%)
Выравнивание : Соединение по промежуткам
Продолжительность промежутка : 42 мс. (1,00 видеокадр)
Время предзагрузки промежутка : 504 мс.
Библиотека кодирования : LAME3.99r
Настройки программы : -m j -V 4 -q 0 -lowpass 18.6 -b 192

Когда раздача ведётся путём добавления новых серий, при каждом добавлении создётся новый торрент. Чтобы начать докачку новой серии, пользователям необходимо сделать следующее:
(1) остановить скачивание,
(2) удалить старый торрент у себя из клиента (старые серии удалять не надо),
(3) скачать новый торрент и запустить его у себя в клиенте вместо старого, при этом указать клиенту путь в старую папку, куда и должно происходить скачивание новых серий.
Ваш клиент при этом должен произвести хеширование (проверку) старой папки (если не производит сам - помогите ему сделать это), и будет докачивать только те серии, которых у вас ещё нет. Старые серии при этом не удаляются, а продолжают раздаваться!
Eсли вы уже удалили старые серии, то предотвратить повторную закачку старых серий можно, отжав галочку в соответсвующих местах при запуске нового торрента. По возможности, желательно не удалять старые серии как можно дольше, чтобы релизёр не столько продолжал раздавать старые серии, а смог сконцентрироваться на новых.
pb.wtf



Скачать Пожарная часть 19 через торрент http://pic1.kartinco.top/images/11/s5444.jpg Скачать фильм Пожарная часть 19 через торрент бесплантно в хорошем качестве Описание: Главные герои - доблестные пожарные из Сиэтла, рискующие жизнью на работе и не жалеющие своих чувств после ... 7.8 10 4
Торрент: Зарегистрирован [2018-05-30 14:43] · скачан: 45 раз
Статус: √ проверено
Размер: 7.83 GB
Как cкачать? Как скачать Пожарная часть 19 через торрент | qTorrent

% Раздел Тема Автор DL S | L
Зарубежные сериалы [ 49.21 GB ] Пожарная часть 19 / Station 19 / Сезон: 3 / Серии: 1-16 из 16 [2020 WEB-DL 1080p] DUB [Кириллица] bober100 Скачать
1 | 0
Зарубежные сериалы [ 36.26 GB ] Пожарная часть 19 / Station 19 / Сезон: 1 / Серии: 1-10 из 10 [2018 WEB-DL 1080p] killermax2013 Скачать
1 | 0
Зарубежные сериалы [ 16.31 GB ] Пожарная часть 19 / Station 19 / Сезон: 1 / Серии: 1-10 из 10 [2018 WEBRip 1080p] DUB [Кириллица] bober100 Скачать
1 | 0
Зарубежные сериалы [ 47.44 GB ] Пожарная часть 19 / Station 19 / Сезон: 2 / Серии: 1-17 из 17 [2018 WEB-DL 1080p] DUB [Кириллица] bober100 Скачать
1 | 0
Зарубежные сериалы [ 6.98 GB ] Пожарная часть 19 / Station 19 / Сезон: 1 / Серии: 1-10 из 10 [2018 WEBRip] DUB [Кириллица] bober100 Скачать
1 | 0
Зарубежные сериалы [ 25.88 GB ] Пожарная часть 19 / Station 19 / Сезон: 2 / Серии: 1-10 из 10 [2018 WEB-DL 720p] MVO [NewStudio] bober100 Скачать
1 | 0
Зарубежные сериалы [ 20.18 GB ] Пожарная часть 19 / Station 19 / Сезон: 1 / Серии: 1-10 из 10 [2018 WEBRip 720p] MVO [Jaskier] bober100 Скачать
1 | 0

28-11-2019 20:33  

Отключить всю рекламу на сайте

    Дорогой пользователь! Огромная просьба, поблагодарите релизера, оцените раздачу и оставьте свои комментарий, если Вы скачали Пожарная часть 19 через торрент бесплатно! Внесите свою лепту в развитие PiratBit!
    Комментировать посты могут только пользователи прошедшие не сложную регистрацию
    Показать сообщения:    

    Пожарная часть 19 через торрент
    Скачать бесплатно Пожарная часть 19
    Пожарная часть 19 скачать торрент
    Пожарная часть 19 смотреть онлайн
    Cкачать фильм Пожарная часть 19 бесплатно
    Пожарная часть 19 скачать торрент в хорошем качестве
    Пожарная часть 19 смотреть онлайн бесплатно в хорошем качестве


    Вы не можете начинать темы
    Вы не можете отвечать на сообщения
    Вы не можете редактировать свои сообщения
    Вы не можете удалять свои сообщения
    Вы не можете голосовать в опросах
    Вы не можете прикреплять файлы к сообщениям
    Вы можете скачивать файлы