Ссылка на приватное зеркало всего за 1$. Внимание количество ограничено!!!

OK

1+1

iTunes

мы

OK

1

WEB-DLRip

Джокер

Пифагор

Ведьмак / The Witcher сериал

iTunes

ПШазам

ОК

Оно 2

iTunes

30
pack

Вам бонус

ВАЖНО

!!Акция!!

Alien_RageХит недели

RePack

Resident Evil 21

ИГРА 18+

pack

RePack

jed

RePack

fifa19

RePack

Assassins Creed: Odyssey

RePack

NEED FOR SPEED™ PAYBACK

4 сезон

9 сезон

Бесстыжие 9 сезон

Все сериалы

все сериалы на PB.wtf

RePack

FAR CRY 5
  

Птицы поют в Кигали / Ptaki spiewaja w Kigali (Иоанна Кос-Краузе, Кшиштоф Краузе) [2017, драма, BDRip 720p] MVO ["Синема УС"] pb.wtf

Птицы поют в Кигали через торрент pb.wtf

Размер: 4.64 GB | Добавлен: 1 год 9 мес. назад | Торрент скачан:4 раза
Скачать  

29-03-2018 16:02 Птицы поют в Кигали Скачать торрент  

Птицы поют в Кигали / Ptaki spiewaja w KigaliГод выпуска: 2017
Страна: Польша
Жанр: драма
Продолжительность: 01:51:09
Перевод: Любительский (многоголосый) | "Синема УС"
Субтитры: отсутствуют

Режиссер: Иоанна Кос-Краузе, Кшиштоф Краузе

rating

В ролях:

Ювита Будник, Элиан Умугире, Витольд Велиньский, Сиза Реми Мухирва, Эрве Кименей, Дидасиен Нибагвир, Анна Ильчук, Александер Миколайчак, Ежи Гудейко, Мацей Томашевски

Описание:

1994 год. После того, как в Кигали был сбит самолёт президента Руанды, начинаются столкновения между племенами тутси и хуту. В течение 100 дней от рук экстремистов погибает около миллиона человек. Свидетелем этих событий становится Анна - польский орнитолог, которая приехала в Африку, чтобы исследовать сокращение популяций грифов в Руанде. Когда начинается геноцид, полька спасает от смерти молодую девушку из племени тутси - Клодин, дочь своего сотрудника. Анна помогает спасённой девушке уехать в Польшу. После прилёта женщины пытаются забыть о кошмаре, но они не в состоянии войти в рутину повседневной жизни...

Качество: BDRip 720p
Формат: MKV

Видео: 5527 Kb/s, 1280x720
Аудио#1: Русский (AC3, 2 ch, 448 Кбит/с)
скриншот  скриншот  скриншот  

Общее
Уникальный идентификатор : 254152860618375855260394460694082121169 (0xBF340F7B121C676A942F3817BD8E6DD1)
Полное имя : D:\Birds.are.singing.in.kigali.2017.P.BDRip.72Op_KOSHARA.mkv
Формат : Matroska
Версия формата : Version 2
Размер файла : 4,64 Гбайт
Продолжительность : 1 ч. 51 м.
Режим общего битрейта : Переменный
Общий поток : 5977 Кбит/сек
Дата кодирования : UTC 2018-03-28 18:51:02
Программа кодирования : mkvmerge v8.3.0 ('Over the Horizon') 64bit
Библиотека кодирования : libebml v1.3.1 + libmatroska v1.4.2

Видео
Идентификатор : 1
Формат : AVC
Формат/Информация : Advanced Video Codec
Профиль формата : High@L4.1
Параметр CABAC формата : Да
Параметр RefFrames формата : 4 кадра
Идентификатор кодека : V_MPEG4/ISO/AVC
Продолжительность : 1 ч. 51 м.
Вид битрейта : Переменный
Битрейт : 5527 Кбит/сек
Максимальный битрейт : 6600 Кбит/сек
Ширина : 1280 пикселей
Высота : 720 пикселей
Соотношение сторон : 16:9
Режим частоты кадров : Постоянный
Частота кадров : 23,976 (24000/1001) кадра/сек
Стандарт вещания : Component
Цветовое пространство : YUV
Субдискретизация насыщенности : 4:2:0
Битовая глубина : 8 бит
Тип развёртки : Прогрессивная
Бит/(Пиксели*Кадры) : 0.245
Размер потока : 4,20 Гбайт (91%)
Default : Да
Forced : Нет
Цветовой диапазон : Limited
Основные цвета : BT.709
Характеристики трансфера : BT.709
Коэффициенты матрицы : BT.709

Аудио
Идентификатор : 2
Формат : AC-3
Формат/Информация : Audio Coding 3
Расширение режима : CM (complete main)
Параметр Endianness формата : Big
Идентификатор кодека : A_AC3
Продолжительность : 1 ч. 51 м.
Вид битрейта : Постоянный
Битрейт : 448 Кбит/сек
Каналы : 2 канала
Расположение каналов : Front: L R
Частота : 48,0 КГц
Частота кадров : 31,250 кадров/сек (1536 spf)
Метод сжатия : С потерями
Размер потока : 356 Мбайт (7%)
Default : Да
Forced : Нет

pb.wtf



Скачать Птицы поют в Кигали через торрент http://img12.lostpic.net/2018/03/29/da1cf6154610d4fc54f26bf6bbde9868.jpg Скачать фильм Птицы поют в Кигали через торрент бесплантно в хорошем качестве Описание: 1994 год. После того, как в Кигали был сбит самолёт президента Руанды, начинаются столкновения между племенами тутси и хуту. В ... 7 10 3
Торрент: Зарегистрирован [2018-03-29 16:02] · скачан: 4 раз
Статус: T временная
Размер: 4.64 GB
Как cкачать? Как скачать Птицы поют в Кигали через торрент | qTorrent

% Раздел Тема Автор DL S | L
T Фильмы (мультфильмы) cо спонсором показа (Новинки AVI/MKV) [ 1.37 GB ] Птицы поют в Кигали / Ptaki spiewaja w Kigali [2017 HDRip] MVO ["Синема УС"] bober100 Скачать
1 | 0

28-11-2019 20:33  

Отключить всю рекламу на сайте

27-01-2019 20:28 Птицы поют в Кигали Скачать торрент  

Вернитесь, пожалуйста, на раздачу. А то совсем не качает.pb.wtf



    Дорогой пользователь! Огромная просьба, поблагодарите релизера, оцените раздачу и оставьте свои комментарий, если Вы скачали Птицы поют в Кигали через торрент бесплатно! Внесите свою лепту в развитие PiratBit!
    Комментировать посты могут только пользователи прошедшие не сложную регистрацию
    Показать сообщения:    

    Птицы поют в Кигали через торрент
    Скачать бесплатно Птицы поют в Кигали
    Птицы поют в Кигали скачать торрент
    Птицы поют в Кигали смотреть онлайн
    Cкачать фильм Птицы поют в Кигали бесплатно
    Птицы поют в Кигали скачать торрент в хорошем качестве
    Птицы поют в Кигали смотреть онлайн бесплатно в хорошем качестве


    Вы не можете начинать темы
    Вы не можете отвечать на сообщения
    Вы не можете редактировать свои сообщения
    Вы не можете удалять свои сообщения
    Вы не можете голосовать в опросах
    Вы не можете прикреплять файлы к сообщениям
    Вы можете скачивать файлы