Ссылка на приватное зеркало всего за 1$. Внимание количество ограничено!!!

OK

1+1

iTunes

мы

OK

1

WEB-DLRip

Джокер

Пифагор

Ведьмак / The Witcher сериал

iTunes

ПШазам

ОК

Оно 2

iTunes

30
pack

Вам бонус

ВАЖНО

!!Акция!!

Alien_RageХит недели

RePack

Resident Evil 21

ИГРА 18+

pack

RePack

jed

RePack

fifa19

RePack

Assassins Creed: Odyssey

RePack

NEED FOR SPEED™ PAYBACK

4 сезон

9 сезон

Бесстыжие 9 сезон

Все сериалы

все сериалы на PB.wtf

RePack

FAR CRY 5
  

Движущиеся части / Moving Parts (Джерри Хейс, Харли Уоллен) [2017, боевик, триллер, драма, криминал, детектив, WEB-DL 720p] MVO ["Синема УС"] pb.wtf

Движущиеся части через торрент pb.wtf

Размер: 3.65 GB | Добавлен: 1 год 10 мес. назад | Торрент скачан:46 раз
Скачать  

29-03-2018 17:09 Движущиеся части Скачать торрент  

Движущиеся части / Moving PartsГод выпуска: 2017
Страна: США
Жанр: боевик, триллер, драма, криминал, детектив
Продолжительность: 01:48:07
Перевод: Любительский (многоголосый) | "Синема УС"
Субтитры: отсутствуют

Режиссер: Джерри Хейс, Харли Уоллен

rating

В ролях:

Т.Дж. Сторм, Майкл Александр, Харли Уоллен, Деннис Марин, Калхун Кениг, Брайан Хайнц, Терри Партыка, Джейк Хейтайш, Аммар Немо, Паркер-Валлен Кейтлин

Описание:

Две пары вовлечены в организованное преступление, после которого все участники понимают, что они не те, за кого себя выдают.

Качество: WEB-DL 720p
Формат: MKV

Видео: 4353 Kb/s, 1280x720
Аудио#1: Русский (AC3, 2 ch, 384 Кбит/с)
скриншот  скриншот  скриншот  

Общее
Уникальный идентификатор : 225135105503368559197084059421622813501 (0xA95F71B1FD9AEAB287CFA097B52E433D)
Полное имя : D:\Moving.Parts.2017.P.WEB-DL.72Op_KOSHARA.mkv
Формат : Matroska
Версия формата : Version 2
Размер файла : 3,65 Гбайт
Продолжительность : 1 ч. 48 м.
Режим общего битрейта : Переменный
Общий поток : 4833 Кбит/сек
Дата кодирования : UTC 2018-03-28 15:00:14
Программа кодирования : mkvmerge v8.3.0 ('Over the Horizon') 64bit
Библиотека кодирования : libebml v1.3.1 + libmatroska v1.4.2

Видео
Идентификатор : 1
Формат : AVC
Формат/Информация : Advanced Video Codec
Профиль формата : High@L4.1
Параметр CABAC формата : Да
Параметр RefFrames формата : 4 кадра
Идентификатор кодека : V_MPEG4/ISO/AVC
Продолжительность : 1 ч. 48 м.
Вид битрейта : Переменный
Битрейт : 4353 Кбит/сек
Максимальный битрейт : 5000 Кбит/сек
Ширина : 1280 пикселей
Высота : 720 пикселей
Соотношение сторон : 16:9
Режим частоты кадров : Постоянный
Частота кадров : 23,976 (24000/1001) кадра/сек
Стандарт вещания : Component
Цветовое пространство : YUV
Субдискретизация насыщенности : 4:2:0
Битовая глубина : 8 бит
Тип развёртки : Прогрессивная
Бит/(Пиксели*Кадры) : 0.197
Размер потока : 3,29 Гбайт (90%)
Default : Да
Forced : Нет
Цветовой диапазон : Limited
Основные цвета : BT.709
Характеристики трансфера : BT.709
Коэффициенты матрицы : BT.709

Аудио
Идентификатор : 2
Формат : AC-3
Формат/Информация : Audio Coding 3
Расширение режима : CM (complete main)
Параметр Endianness формата : Big
Идентификатор кодека : A_AC3
Продолжительность : 1 ч. 48 м.
Вид битрейта : Постоянный
Битрейт : 384 Кбит/сек
Каналы : 2 канала
Расположение каналов : Front: L R
Частота : 48,0 КГц
Частота кадров : 31,250 кадров/сек (1536 spf)
Метод сжатия : С потерями
Размер потока : 297 Мбайт (8%)
Default : Да
Forced : Нет

pb.wtf



Скачать Движущиеся части через торрент http://img12.lostpic.net/2018/03/29/071e2ce0d4b14adfd86f7763f20fc8b8.jpg Скачать фильм Движущиеся части через торрент бесплантно в хорошем качестве Описание: Две пары вовлечены в организованное преступление, после которого все участники понимают, что они не те, за кого себя ... 10 10 4
Торрент: Зарегистрирован [2018-03-29 17:09] · скачан: 46 раз
Статус: T временная
Размер: 3.65 GB
Как cкачать? Как скачать Движущиеся части через торрент | qTorrent

% Раздел Тема Автор DL S | L
T Фильмы (мультфильмы) cо спонсором показа (Новинки AVI/MKV) [ 1.37 GB ] Движущиеся части / Moving Parts [2017 WEB-DLRip] MVO ["Синема УС"] bober100 Скачать
1 | 0

28-11-2019 20:33  

Отключить всю рекламу на сайте

    Дорогой пользователь! Огромная просьба, поблагодарите релизера, оцените раздачу и оставьте свои комментарий, если Вы скачали Движущиеся части через торрент бесплатно! Внесите свою лепту в развитие PiratBit!
    Комментировать посты могут только пользователи прошедшие не сложную регистрацию
    Показать сообщения:    

    Движущиеся части через торрент
    Скачать бесплатно Движущиеся части
    Движущиеся части скачать торрент
    Движущиеся части смотреть онлайн
    Cкачать фильм Движущиеся части бесплатно
    Движущиеся части скачать торрент в хорошем качестве
    Движущиеся части смотреть онлайн бесплатно в хорошем качестве


    Вы не можете начинать темы
    Вы не можете отвечать на сообщения
    Вы не можете редактировать свои сообщения
    Вы не можете удалять свои сообщения
    Вы не можете голосовать в опросах
    Вы не можете прикреплять файлы к сообщениям
    Вы можете скачивать файлы