Ссылка на приватное зеркало всего за 1$. Внимание количество ограничено!!!

OK

1+1

iTunes

мы

OK

1

WEB-DLRip

Джокер

Пифагор

Ведьмак / The Witcher сериал

iTunes

ПШазам

ОК

Оно 2

iTunes

30
pack

Вам бонус

ВАЖНО

!!Акция!!

Alien_RageХит недели

RePack

Resident Evil 21

ИГРА 18+

pack

RePack

jed

RePack

fifa19

RePack

Assassins Creed: Odyssey

RePack

NEED FOR SPEED™ PAYBACK

4 сезон

9 сезон

Бесстыжие 9 сезон

Все сериалы

все сериалы на PB.wtf

RePack

FAR CRY 5
  

Антихрист 2 / Deccal 2 (Озгюр Бакар) [2017, ужасы, HDTVRip 720p] MVO ["Синема УС"] pb.wtf

Антихрист 2 через торрент pb.wtf

Размер: 3.14 GB | Добавлен: 1 год 9 мес. назад | Торрент скачан:82 раза
Скачать  

29-03-2018 17:31 Антихрист 2 Скачать торрент  

Антихрист 2 / Deccal 2Год выпуска: 2017
Страна: Турция
Жанр: ужасы
Продолжительность: 01:53:25
Перевод: Любительский (многоголосый) | "Синема УС"
Субтитры: отсутствуют

Режиссер: Озгюр Бакар

rating

В ролях:

Эмре Аксой, Тойгун Атеш, Сумерджан Айсан, Арзу Будак, Волькан Кэл, Айкут Демир Парсджан

Описание:

Идёт война двух сторон, потустороннего и нашего мира.Дьяволы появляются в облике людей и раз в 1000 лет пытаются создать хаос на Земле, путём рождения Антихриста. Что же будет, когда Антихрист родился раньше, чем 1000 лет и как ему будут противодействовать борцы против дьяволов?

Качество: HDTVRip 720p
Формат: MKV

Видео: 3574 Kb/s, 1280x536
Аудио#1: Русский (AC3, 2 ch, 384 Кбит/с)
скриншот  скриншот  скриншот  

Общее
Уникальный идентификатор : 227711548405026386374912091278514132329 (0xAB4FA62343DC2368844632E40DE91569)
Полное имя : D:\Deccal.2.2017.P.HDTV.72Op_KOSHARA.mkv
Формат : Matroska
Версия формата : Version 2
Размер файла : 3,14 Гбайт
Продолжительность : 1 ч. 53 м.
Режим общего битрейта : Переменный
Общий поток : 3959 Кбит/сек
Дата кодирования : UTC 2018-03-28 07:49:46
Программа кодирования : mkvmerge v8.3.0 ('Over the Horizon') 64bit
Библиотека кодирования : libebml v1.3.1 + libmatroska v1.4.2

Видео
Идентификатор : 1
Формат : AVC
Формат/Информация : Advanced Video Codec
Профиль формата : High@L4.1
Параметр CABAC формата : Да
Параметр RefFrames формата : 4 кадра
Идентификатор кодека : V_MPEG4/ISO/AVC
Продолжительность : 1 ч. 53 м.
Вид битрейта : Переменный
Битрейт : 3574 Кбит/сек
Максимальный битрейт : 4000 Кбит/сек
Ширина : 1280 пикселей
Высота : 536 пикселей
Соотношение сторон : 2,40:1
Режим частоты кадров : Постоянный
Частота кадров : 23,976 (24000/1001) кадра/сек
Стандарт вещания : Component
Цветовое пространство : YUV
Субдискретизация насыщенности : 4:2:0
Битовая глубина : 8 бит
Тип развёртки : Прогрессивная
Бит/(Пиксели*Кадры) : 0.213
Размер потока : 2,77 Гбайт (88%)
Default : Да
Forced : Нет
Цветовой диапазон : Limited
Основные цвета : BT.709
Характеристики трансфера : BT.709
Коэффициенты матрицы : BT.709

Аудио
Идентификатор : 2
Формат : AC-3
Формат/Информация : Audio Coding 3
Расширение режима : CM (complete main)
Параметр Endianness формата : Big
Идентификатор кодека : A_AC3
Продолжительность : 1 ч. 53 м.
Вид битрейта : Постоянный
Битрейт : 384 Кбит/сек
Каналы : 2 канала
Расположение каналов : Front: L R
Частота : 48,0 КГц
Частота кадров : 31,250 кадров/сек (1536 spf)
Метод сжатия : С потерями
Размер потока : 312 Мбайт (10%)
Default : Да
Forced : Нет

pb.wtf



Скачать Антихрист 2 через торрент http://img12.lostpic.net/2018/03/29/b7a9d23d6f876dabe627ba1017a35be2.jpg Скачать фильм Антихрист 2 через торрент бесплантно в хорошем качестве Описание: Идёт война двух сторон, потустороннего и нашего мира.Дьяволы появляются в облике людей и раз в 1000 лет пытаются создать хаос на ... 10 10 3
Торрент: Зарегистрирован [2018-03-29 17:31] · скачан: 82 раз
Статус: T временная
Размер: 3.14 GB
Как cкачать? Как скачать Антихрист 2 через торрент | qTorrent

% Раздел Тема Автор DL S | L
T Фильмы (мультфильмы) cо спонсором показа (Новинки AVI/MKV) [ 1.36 GB ] Антихрист 2 / Deccal 2 [2017 HDTVRip] MVO ["Синема УС"] bober100 Скачать
1 | 0

28-11-2019 20:33  

Отключить всю рекламу на сайте

    Дорогой пользователь! Огромная просьба, поблагодарите релизера, оцените раздачу и оставьте свои комментарий, если Вы скачали Антихрист 2 через торрент бесплатно! Внесите свою лепту в развитие PiratBit!
    Комментировать посты могут только пользователи прошедшие не сложную регистрацию
    Показать сообщения:    

    Антихрист 2 через торрент
    Скачать бесплатно Антихрист 2
    Антихрист 2 скачать торрент
    Антихрист 2 смотреть онлайн
    Cкачать фильм Антихрист 2 бесплатно
    Антихрист 2 скачать торрент в хорошем качестве
    Антихрист 2 смотреть онлайн бесплатно в хорошем качестве


    Вы не можете начинать темы
    Вы не можете отвечать на сообщения
    Вы не можете редактировать свои сообщения
    Вы не можете удалять свои сообщения
    Вы не можете голосовать в опросах
    Вы не можете прикреплять файлы к сообщениям
    Вы можете скачивать файлы