Ссылка на приватное зеркало нашего сайта всего за 1$. Внимание количество ограничено!!!

2 сезон

iTunes

1 сезон

1

2 сезон

2 сезон

iTunes

1 сезон

RePack

30

Ultimate

ВАЖНО

ИГРА 18+

pack

RePack

MK11
pack

Забери бонус

RePack

jed

!!Акция!!

Alien_Rage

RePack

fifa19

RePack

Assassins Creed: Odyssey

RePack

NEED FOR SPEED™ PAYBACK

4 сезон

9 сезон

Бесстыжие 9 сезон

Все сериалы

все сериалы на PB.wtf

RePack

FAR CRY 5
  

Форс-Мажоры / Костюмы в законе / Suits / Сезон: 7 / Серии: 1-16 из 16 (Кевин Брэй, Джон Скотт, Майкл Смит) [2017, Драма, криминал, юриспруденция, комедия WEB-DL 1080p] MVO [NewStudio] pb.wtf

Форс-Мажоры через торрент pb.wtf

Размер: 29.47 GB | Добавлен: 2 года 7 мес. назад | Торрент скачан:46 раз
Скачать  

30-03-2018 08:47 Форс-Мажоры Скачать торрент  

═╬ Форс-Мажоры / Костюмы в законе / Suits ╬═
✦ Год выпуска: 2017
✦ Страна: США
✦ Жанр: Драма, криминал, юриспруденция, комедия
✦ Продолжительность: ~ 00:43:00 серия
✦ Перевод: Профессиональный многоголосый |
✦ Субтитры: Русские, английские

✦ Режиссер: Кевин Брэй, Джон Скотт, Майкл Смит

rating

В ролях:

Гэбриел Махт, Патрик Дж. Адамс, Рик Хоффман, Меган Маркл, Сара Рафферти, Джина Торрес, Ванесса Рэй, Том Липински, Макс Топплин, Ребекка Скул, Джулиан ДеЗотти, Бен Льюис и др.

Описание:

В центре сюжета замечательный, но немотивированный молодой человек, так и не закончивший учебу в колледже. У него есть все необходимые качества, чтобы стать хорошим адвокатом, кроме диплома. Но благодаря знаниям законов улицы и напористым, не всегда честным действиям его нанимает влиятельная юридическая фирма из Манхэттена....

✦ Качество: WEB-DL 1080p
✦ Формат: MKV
✦ Видео кодек: H.264
✦ Аудио кодек: AC3

✦ Видео: ~ 5 200 kbps, 1920x1080
✦ Аудио#1 Rus: AC3, 6 ch, 384 kbps
✦ Аудио#2 Eng: AC3, 6 ch, 384 kbps


скриншот   скриншот   скриншот   скриншот  

Общее
Уникальный идентификатор : 250318323829163229275023811280155175723 (0xBC518E3877EE6250BE8DA85C2FD7EB2B)
Полное имя : D:\Suits\Suits.s07e01.1080p.NewStudio.mkv
Формат : Matroska
Версия формата : Version 2
Размер файла : 1,89 Гбайт
Продолжительность : 45 м. 16 с.
Общий поток : 5984 Кбит/сек
Дата кодирования : UTC 2017-07-19 17:46:34
Программа кодирования : mkvmerge v12.0.0 ('Trust / Lust') 64bit
Библиотека кодирования : libebml v1.3.4 + libmatroska v1.4.5

Видео
Идентификатор : 1
Формат : AVC
Формат/Информация : Advanced Video Codec
Профиль формата : High@L4
Параметр CABAC формата : Да
Параметр RefFrames формата : 4 кадра
Идентификатор кодека : V_MPEG4/ISO/AVC
Продолжительность : 45 м. 16 с.
Битрейт : 5213 Кбит/сек
Ширина : 1920 пикселей
Высота : 1080 пикселей
Соотношение сторон : 16:9
Режим частоты кадров : Постоянный
Частота кадров : 23,976 (23976/1000) кадра/сек
Цветовое пространство : YUV
Субдискретизация насыщенности : 4:2:0
Битовая глубина : 8 бит
Тип развёртки : Прогрессивная
Бит/(Пиксели*Кадры) : 0.105
Размер потока : 1,65 Гбайт (87%)
Язык : English
Default : Да
Forced : Нет
Цветовой диапазон : Limited
Основные цвета : BT.709
Характеристики трансфера : BT.709
Коэффициенты матрицы : BT.709

Аудио #1
Идентификатор : 2
Формат : AC-3
Формат/Информация : Audio Coding 3
Расширение режима : CM (complete main)
Параметр Endianness формата : Big
Идентификатор кодека : A_AC3
Продолжительность : 45 м. 16 с.
Вид битрейта : Постоянный
Битрейт : 384 Кбит/сек
Каналы : 6 каналов
Расположение каналов : Front: L C R, Side: L R, LFE
Частота : 48,0 КГц
Частота кадров : 31,250 кадров/сек (1536 spf)
Метод сжатия : С потерями
Задержка видео : -20 мс.
Размер потока : 124 Мбайт (6%)
Язык : Russian
Default : Да
Forced : Нет

Аудио #2
Идентификатор : 3
Формат : AC-3
Формат/Информация : Audio Coding 3
Расширение режима : CM (complete main)
Параметр Endianness формата : Big
Идентификатор кодека : A_AC3
Продолжительность : 45 м. 16 с.
Вид битрейта : Постоянный
Битрейт : 384 Кбит/сек
Каналы : 6 каналов
Расположение каналов : Front: L C R, Side: L R, LFE
Частота : 48,0 КГц
Частота кадров : 31,250 кадров/сек (1536 spf)
Метод сжатия : С потерями
Задержка видео : -42 мс.
Размер потока : 124 Мбайт (6%)
Язык : English
Default : Нет
Forced : Нет

Текст #1
Идентификатор : 4
Формат : UTF-8
Идентификатор кодека : S_TEXT/UTF8
Идентификатор кодека/Информация : UTF-8 Plain Text
Продолжительность : 43 м. 18 с.
Битрейт : 205 бит/сек
ElementCount : 987
Размер потока : 65,0 Кбайт (0%)
Язык : Russian
Default : Да
Forced : Нет

Текст #2
Идентификатор : 5
Формат : UTF-8
Идентификатор кодека : S_TEXT/UTF8
Идентификатор кодека/Информация : UTF-8 Plain Text
Продолжительность : 43 м. 18 с.
Битрейт : 121 бит/сек
ElementCount : 987
Размер потока : 38,5 Кбайт (0%)
Язык : English
Default : Нет
Forced : Нет

Когда раздача ведётся путём добавления новых серий, при каждом добавлении создётся новый торрент. Чтобы начать докачку новой серии, пользователям необходимо сделать следующее:
(1) остановить скачивание,
(2) удалить старый торрент у себя из клиента (старые серии удалять не надо),
(3) скачать новый торрент и запустить его у себя в клиенте вместо старого, при этом указать клиенту путь в старую папку, куда и должно происходить скачивание новых серий.
Ваш клиент при этом должен произвести хеширование (проверку) старой папки (если не производит сам - помогите ему сделать это), и будет докачивать только те серии, которых у вас ещё нет. Старые серии при этом не удаляются, а продолжают раздаваться!
Eсли вы уже удалили старые серии, то предотвратить повторную закачку старых серий можно, отжав галочку в соответсвующих местах при запуске нового торрента. По возможности, желательно не удалять старые серии как можно дольше, чтобы релизёр не столько продолжал раздавать старые серии, а смог сконцентрироваться на новых.
pb.wtf



Скачать Форс-Мажоры через торрент http://s48.radikal.ru/i122/1707/71/bc773c17f7ec.png Скачать фильм Форс-Мажоры через торрент бесплантно в хорошем качестве Описание: В центре сюжета замечательный, но немотивированный молодой человек, так и не закончивший учебу в колледже. У него есть все ... 10 10 3
Торрент: Зарегистрирован [2018-04-30 05:51] · скачан: 46 раз
Статус: √ проверено
Размер: 29.47 GB
Как cкачать? Как скачать Форс-Мажоры через торрент | qTorrent

% Раздел Тема Автор DL S | L
Зарубежные сериалы [ 23.87 GB ] Форс-Мажоры / Костюмы в законе / Suits / Сезон: 7 / Серии: 1-16 из 16 [2017 юриспруденция WEB-DL 720p] MVO [NewStudio] bober100 Скачать
1 | 0
Зарубежные сериалы [ 31.07 GB ] Форс-Мажоры / Костюмы в законе / Suits / Сезон: 7 / Серии: 1-16 из 16 [2017 юриспруденция WEB-DL 1080p] MVO [Baibako] bober100 Скачать
1 | 0
Зарубежные сериалы [ 9.44 GB ] Форс-Мажоры / Костюмы в законе / Suits / Сезон: 7 / Серии: 1-16 из 16 [2017 юриспруденция WEB-DLRip] MVO [Baibako] bober100 Скачать
1 | 0
Зарубежные сериалы [ 24.2 GB ] Форс-Мажоры / Костюмы в законе / Suits / Сезон: 7 / Серии: 1-16 из 16 [2017 юриспруденция WEB-DL 720p] MVO [Baibako] bober100 Скачать
1 | 0
Зарубежные сериалы [ 8.52 GB ] Форс-Мажоры / Костюмы в законе / Suits / Сезон: 7 / Серии: 1-16 из 16 [2017 юриспруденция WEB-DLRip] DVO [SunshineStudio] bober100 Скачать
1 | 0
Зарубежные сериалы [ 10.72 GB ] Форс-Мажоры / Костюмы в законе / Suits / Сезон: 7 / Серии: 1-16 из 16 [2017 юриспруденция WEB-DL 720p] DVO [SunshineStudio] bober100 Скачать
1 | 0
Зарубежные сериалы [ 8.92 GB ] Форс-Мажоры / Костюмы в законе / Suits / Сезон: 7 / Серии: 1-16 из 16 [2017 юриспруденция WEB-DLRip] MVO [NewStudio] bober100 Скачать
1 | 0

28-11-2019 20:33  

Отключить всю рекламу на сайте

    Дорогой пользователь! Огромная просьба, поблагодарите релизера, оцените раздачу и оставьте свои комментарий, если Вы скачали Форс-Мажоры через торрент бесплатно! Внесите свою лепту в развитие PiratBit!
    Комментировать посты могут только пользователи прошедшие не сложную регистрацию
    Показать сообщения:    

    Форс-Мажоры через торрент
    Скачать бесплатно Форс-Мажоры
    Форс-Мажоры скачать торрент
    Форс-Мажоры смотреть онлайн
    Cкачать фильм Форс-Мажоры бесплатно
    Форс-Мажоры скачать торрент в хорошем качестве
    Форс-Мажоры смотреть онлайн бесплатно в хорошем качестве


    Вы не можете начинать темы
    Вы не можете отвечать на сообщения
    Вы не можете редактировать свои сообщения
    Вы не можете удалять свои сообщения
    Вы не можете голосовать в опросах
    Вы не можете прикреплять файлы к сообщениям
    Вы можете скачивать файлы