Ссылка на приватное зеркало нашего сайта всего за 1$. Внимание количество ограничено!!!

2 сезон

iTunes

1 сезон

1

2 сезон

2 сезон

iTunes

1 сезон

RePack

30

Ultimate

ВАЖНО

ИГРА 18+

pack

RePack

MK11
pack

Забери бонус

RePack

jed

!!Акция!!

Alien_Rage

RePack

fifa19

RePack

Assassins Creed: Odyssey

RePack

NEED FOR SPEED™ PAYBACK

4 сезон

9 сезон

Бесстыжие 9 сезон

Все сериалы

все сериалы на PB.wtf

RePack

FAR CRY 5
  

Добрый доктор / Хороший доктор / The Good Doctor / Сезон: 1 / Серии: 1-18 из 18 (Сет Гордон) [2017, драма, WEB-DL 1080p] MVO [LostFilm] pb.wtf

Добрый доктор через торрент pb.wtf

Качают: 1 [ 0 KB/s ]
Размер: 40.99 GB | Добавлен: 2 года 8 мес. назад | Торрент скачан:126 раз
Скачать  

30-03-2018 09:05 Добрый доктор Скачать торрент  

Добрый доктор / Хороший доктор / The Good Doctor
Информация о фильме:

✦ Название: Хороший доктор
✦ Оригинальное название: The Good Doctor
✦ Год выпуска: 2017
✦ Страна: США / 3AD, EnterMedia Contents, Shore Z Productions, Sony Pictures Television
✦ Жанр: драма
✦ Продолжительность: ~ 00:43:00 серия
✦ Перевод: Профессиональный многоголосый | LostFilm
✦ Субтитры: английские
✦ Примечание: Без заставки и логотипа LostFilm!

✦ Режиссер: Сет Гордон

rating

В ролях:

Бо Гарретт, Николас Гонсалес, Хилл Харпер, Фредди Хаймор, Ирен Кэн, Дилан Кингуэлл, Чуку Моду, Роуз Рейнджер, Ричард Шифф, Антония Томас и др.

Описание:

История молодого талантливого врача с синдромом саванта, обладающего уникальными способностями - невероятной памятью и фантастической чувствительностью к проблемам, вспыхивающим внутри человеческого организма. Герой становится блестящим хирургом, несмотря на то, в личностном плане его развитие соответствует развитию десятилетнего ребёнка...

Информация о файле:

✦ Качество: WEB-DL 1080p
✦ Формат: MKV

✦ Видео: ~ 9000 kbps, 1920х1080 (16:9), 25.000 fps
✦ Аудио#1 RUS: AC3, 48 KHz, 6 ch, 640 kbps
✦ Аудио#2 ENG: AC3, 48 KHz, 6 ch, 640 kbps


скриншот   скриншот   скриншот   скриншот  

Общее
Уникальный идентификатор : 207669215612246737433624380179765179254 (0x9C3BA2D6A17108CF9A2C5FBC4476B376)
Полное имя : D:\The.Good.Doctor.S01.WEB-DL.1080p.Rus.Eng\The.Good.Doctor.S01E01.WEB-DL.1080p.Rus.Eng.mkv
Формат : Matroska
Версия формата : Version 4 / Version 2
Размер файла : 3,26 Гбайт
Продолжительность : 43 м. 24 с.
Режим общего битрейта : Переменный
Общий поток : 10,8 Мбит/сек
Название фильма : The Good Doctor 1x01 (2017) - Release serial_M
Дата кодирования : UTC 2017-12-27 15:06:34
Программа кодирования : mkvmerge v18.0.0 ('Apricity') 64-bit
Библиотека кодирования : libebml v1.3.5 + libmatroska v1.4.8

Видео
Идентификатор : 1
Формат : AVC
Формат/Информация : Advanced Video Codec
Профиль формата : High@L4
Параметр CABAC формата : Да
Параметр RefFrames формата : 4 кадра
Идентификатор кодека : V_MPEG4/ISO/AVC
Продолжительность : 43 м. 24 с.
Вид битрейта : Переменный
Битрейт : 9275 Кбит/сек
Максимальный битрейт : 15,0 Мбит/сек
Ширина : 1920 пикселей
Высота : 1080 пикселей
Соотношение сторон : 16:9
Режим частоты кадров : Постоянный
Частота кадров : 23,976 (24000/1001) кадра/сек
Цветовое пространство : YUV
Субдискретизация насыщенности : 4:2:0
Битовая глубина : 8 бит
Тип развёртки : Прогрессивная
Бит/(Пиксели*Кадры) : 0.187
Размер потока : 2,81 Гбайт (86%)
Заголовок : The Good Doctor 1x01 (2017) - Release serial_M
Язык : English
Default : Да
Forced : Нет
Цветовой диапазон : Limited
Основные цвета : BT.709
Характеристики трансфера : BT.709
Коэффициенты матрицы : BT.709

Аудио #1
Идентификатор : 2
Формат : AC-3
Формат/Информация : Audio Coding 3
Расширение режима : CM (complete main)
Параметр Endianness формата : Big
Идентификатор кодека : A_AC3
Продолжительность : 43 м. 24 с.
Вид битрейта : Постоянный
Битрейт : 640 Кбит/сек
Каналы : 6 каналов
Расположение каналов : Front: L C R, Side: L R, LFE
Частота : 48,0 КГц
Частота кадров : 31,250 кадров/сек (1536 spf)
Метод сжатия : С потерями
Размер потока : 199 Мбайт (6%)
Заголовок : LostFilm
Язык : Russian
Default : Да
Forced : Нет

Аудио #2
Идентификатор : 3
Формат : E-AC-3
Формат/Информация : Audio Coding 3
Параметр Endianness формата : Big
Идентификатор кодека : A_EAC3
Продолжительность : 43 м. 24 с.
Вид битрейта : Постоянный
Битрейт : 640 Кбит/сек
Каналы : 6 каналов
Расположение каналов : Front: L C R, Side: L R, LFE
Частота : 48,0 КГц
Частота кадров : 187,500 кадров/сек (256 spf)
Метод сжатия : С потерями
Размер потока : 199 Мбайт (6%)
Заголовок : English
Язык : English
Default : Нет
Forced : Нет

Текст
Идентификатор : 4
Формат : UTF-8
Идентификатор кодека : S_TEXT/UTF8
Идентификатор кодека/Информация : UTF-8 Plain Text
Заголовок : eng-sub
Язык : English
Default : Нет
Forced : Нет

pb.wtf



Скачать Добрый доктор через торрент http://i100.fastpic.ru/big/2017/1216/ab/5e88d4f72913d6cb0feec2b5ffdd9aab.jpg Скачать фильм Добрый доктор через торрент бесплантно в хорошем качестве Описание: История молодого талантливого врача с синдромом саванта, обладающего уникальными способностями - невероятной памятью и ... 9.8 10 6
Info! Золотая раздача, скачанное не засчитывается.
Торрент: Зарегистрирован [2018-03-30 09:05] · скачан: 126 раз
Статус: √ проверено
Размер: 40.99 GB
Как cкачать? Как скачать Добрый доктор через торрент | qTorrent

% Раздел Тема Автор DL S | L
Зарубежные сериалы [ 43.18 GB ] Добрый доктор / Хороший доктор / The Good Doctor / Сезон: 2 / Серии: 1-18 из 18 [2018 WEB-DL 1080p] MVO [Jaskier] bober100 Скачать
1 | 0
Зарубежные сериалы [ 44.43 GB ] Добрый доктор / Хороший доктор / The Good Doctor / Сезон: 2 / Серии: 1-18 из 18 [2018 WEB-DL 1080p] MVO [TVShows] bober100 Скачать
1 | 0
Зарубежные сериалы [ 16.18 GB ] Добрый доктор / Хороший доктор / The Good Doctor / Сезон: 2 / Серии: 1-18 из 18 [2018 WEB-DL 720p] MVO [Jaskier] bober100 Скачать
1 | 0
Зарубежные сериалы [ 9.02 GB ] Добрый доктор / Хороший доктор / The Good Doctor / Сезон: 2 / Серии: 1-18 из 18 [2018 WEB-DLRip] MVO [Jaskier] bober100 Скачать
1 | 0
Зарубежные сериалы [ 10.37 GB ] Добрый доктор / Хороший доктор / The Good Doctor / Сезон: 1 / Серии: 1-18 из 18 [2017 WEBRip] MVO [BaibaKo] bober100 Скачать
2 | 0
Зарубежные сериалы [ 29.29 GB ] Добрый доктор / Хороший доктор / The Good Doctor / Сезон: 1 / Серии: 1-18 из 18 [2017 WEBRip 720p] MVO [BaibaKo] bober100 Скачать
1 | 0
Зарубежные сериалы [ 40.4 GB ] Добрый доктор / Хороший доктор / The Good Doctor / Сезон: 1 / Серии: 1-18 из 18 [2017 WEBRip 1080p WEB-DL 1080p] MVO [BaibaKo] bober100 Скачать
1 | 0

28-11-2019 20:33  

Отключить всю рекламу на сайте

    Дорогой пользователь! Огромная просьба, поблагодарите релизера, оцените раздачу и оставьте свои комментарий, если Вы скачали Добрый доктор через торрент бесплатно! Внесите свою лепту в развитие PiratBit!
    Комментировать посты могут только пользователи прошедшие не сложную регистрацию
    Показать сообщения:    

    Добрый доктор через торрент
    Скачать бесплатно Добрый доктор
    Добрый доктор скачать торрент
    Добрый доктор смотреть онлайн
    Cкачать фильм Добрый доктор бесплатно
    Добрый доктор скачать торрент в хорошем качестве
    Добрый доктор смотреть онлайн бесплатно в хорошем качестве


    Вы не можете начинать темы
    Вы не можете отвечать на сообщения
    Вы не можете редактировать свои сообщения
    Вы не можете удалять свои сообщения
    Вы не можете голосовать в опросах
    Вы не можете прикреплять файлы к сообщениям
    Вы можете скачивать файлы