Anonymous, доброе утро, присоединяйтесь к нам в Telegram!, здесь всегда актуальный адрес сайта, оперативная поддержка и многое другое!

>

5.5

iTunes

7.4

iTunes

7.9

iTunes

1

7.7

1 сезон

6.8

iTunes

7.3

1 сезон

13

6.7

1 сезон

8.3

RePack

30

ULTIMATE

pack

9.9

Лицензия

ВАЖНО

ИГРА 18+

pack

7.3

RePack

MK11

7.7

RePack

jed

7.8

RePack

fifa19

8.5

RePack

RDR2

RePack

NEED FOR SPEED™ PAYBACK

4 сезон

9 сезон

Бесстыжие 9 сезон

Все сериалы

все сериалы на PB.wtf

RePack

FAR CRY 5

Anonymous, доброе утро, мы катастрофически не успеваем собрать деньги на оплату серверов, помогите нам пожалуйста 5,10,15р., для нас важна любая помощь . В качестве благодарности мы отключим Вам всю рекламу на сайте (укажите свой ник в строку Ваше имя)!

×
  
Magnet ссылка

Человек меняет кожу (Рафаил Перельштейн) [1960, СССР, драма, шпионский фильм, VHSRip от AVP Studio] pb.wtf

Человек меняет кожу через торрент pb.wtf

Размер: 1.46 GB | Добавлен: 3 года 6 мес. назад | Торрент скачан:20 раз
Смотреть онлайн Человек меняет кожу | Скачать    Ребята, помогите собрать деньги на оплату серверов!!!

30-03-2018 09:23 Человек меняет кожу Скачать торрент  

Человек меняет кожу
Страна: СССР
Производство: Таджикфильм

Жанр: драма, шпионский фильм
Год выпуска: 1960
Продолжительность: 02:43:22

Перевод: Не требуется
Cубтитры: нет
Оригинальная аудиодорожка: русский

Режиссер: Рафаил Перельштейн

В ролях:
Гурминдж Завкибеков, Сергей Курилов, Изольда Извицкая, Сергей Столяров, Владимир Емельянов, Сергей Голованов, Джахон Саидмурадов, Борис Виноградов, Асли (Аслиддин) Бурханов, Наталья Медведева, Юрий Киреев, Григорий Кириллов, Алексей Преснецов, Нинель Мышкова, Павел Волков, Владимир Иванов, Николай Бармин, Абдульхайр Касымов, Николай Волчков, Борис Шлихтинг...
Об актёрах подробней

Описание:
По мотивам одноименного романа Бруно Ясенского.
Идет строительство Вахшского канала — одной из крупнейших новостроек первой пятилетки. Сюда прибывают по контракту два американца. Матерый шпион полковник Бейли, представившийся безобидным путешественником мистером Мурри, позже будет пойман с поличным и разоблачен.

Исходник: VHS
Качество видео: VHSRip
Формат видео: AVI

Видео: 672x448 (3:2), 25,000 кадров/сек, XviD ~ 1078 kbps avg, 0.143 bit/pixel
Аудио: 48 kHz, Dolby Digital AC3 2.0, 192 kbps

Раздача от:
Общее
Полное имя : Chelovek.menyaet.kozhu.1960.VHSRip_[New-team]_by_AVP_Studio.avi
Формат : AVI
Формат/Информация : Audio Video Interleave
Размер файла : 1,46 Гбайт
Продолжительность : 2 ч. 43 м.
Общий поток : 1280 Кбит/сек
Программа кодирования : VirtualDubMod 1.5.10.3 | www.virtualdub-fr.org || (build 2550/release)
Библиотека кодирования : VirtualDubMod build 2550/release

Видео
Идентификатор : 0
Формат : MPEG-4 Visual
Профиль формата : Advanced Simple@L5
Настройки формата : BVOP1 / Custom Matrix
Параметр BVOP формата : 1
Параметр QPel формата : Нет
Параметр GMC формата : Без точки перехода
Параметр матрицы формата : Выборочная
Идентификатор кодека : XVID
Идентификатор кодека/Подсказка : XviD
Продолжительность : 2 ч. 43 м.
Битрейт : 1078 Кбит/сек
Ширина : 672 пикселя
Высота : 448 пикселей
Соотношение сторон : 3:2
Частота кадров : 25,000 кадров/сек
Цветовое пространство : YUV
Субдискретизация насыщенности : 4:2:0
Битовая глубина : 8 бит
Тип развёртки : Прогрессивная
Метод сжатия : С потерями
Бит/(Пиксели*Кадры) : 0.143
Размер потока : 1,23 Гбайт (84%)
Библиотека кодирования : XviD 73

Аудио
Идентификатор : 1
Формат : AC-3
Формат/Информация : Audio Coding 3
Идентификатор кодека : 2000
Продолжительность : 2 ч. 43 м.
Вид битрейта : Постоянный
Битрейт : 192 Кбит/сек
Каналы : 2 канала
Расположение каналов : Front: L R
Частота : 48,0 КГц
Частота кадров : 31,250 кадров/сек (1536 SPF)
Битовая глубина : 16 бит
Метод сжатия : С потерями
Размер потока : 224 Мбайт (15%)
Выравнивание : Разделение по промежуткам
Продолжительность промежутка : 40 мс. (1,00 видеокадр)
Время предзагрузки промежутка : 500 мс
pb.wtf



Скачать Человек меняет кожу через торрент http://i4.imageban.ru/out/2018/03/30/d9c4f56bec2072e9bc52b0de7692d124.png Скачать, смотреть онлайн Человек меняет кожу бесплантно в хорошем качестве Описание:По мотивам одноименного романа Бруно Ясенского.Идет строительство Вахшского канала — одной из крупнейших новостроек первой ... 5 10 1
Торрент: Зарегистрирован [2018-03-30 09:23] · скачан: 20 раз
Статус: √ проверено
Размер: 1.46 GB
Как cкачать? Как скачать Человек меняет кожу через торрент | UTorrent

% Раздел Тема Автор DL S | L
Кино СССР [ 2.18 GB ] Человек меняет кожу [1960 СССР шпионский фильм VHSRip-AVC от AVP Studio] AVP Studio Скачать
1 | 1

28-11-2019 20:33  

Отключить всю рекламу на сайте

    Дорогой пользователь! Огромная просьба, поблагодарите релизера, оцените раздачу и оставьте свои комментарий, если Вы скачали Человек меняет кожу через торрент бесплатно!
    Комментировать посты могут только пользователи прошедшие не сложную регистрацию
    Показать сообщения:    

    Человек меняет кожу через торрент
    Скачать бесплатно Человек меняет кожу
    Человек меняет кожу скачать торрент
    Человек меняет кожу смотреть онлайн
    Cкачать фильм Человек меняет кожу бесплатно
    Человек меняет кожу скачать торрент в хорошем качестве
    Человек меняет кожу смотреть онлайн бесплатно в хорошем качестве


    Вы не можете начинать темы
    Вы не можете отвечать на сообщения
    Вы не можете редактировать свои сообщения
    Вы не можете удалять свои сообщения
    Вы не можете голосовать в опросах
    Вы не можете прикреплять файлы к сообщениям
    Вы можете скачивать файлы