новый адрес
Мега распродажа FORZA HORIZON 4 ULTIMATE+ВСЕ DLC+ОНЛАЙН всего за 499р. 349 руб. (супер цена). Внимание количество ограничено!!!

iTunes

1+1

iTunes

мы

iTunes

1

iTunes

Чернобыль

iTunes

Ральф против интернета

Лицензия

ПШазам

Лицензия

Игра престолов

Лицензия

30
pack

ВАЖНО

!!Акция!!

Alien_RageХит недели

RePack

Resident Evil 21

ИГРА 18+

pack

RePack

Metro:Exodus

!!Акция!!

Alien_Rage

RePack

fifa19

RePack

Assassins Creed: Odyssey

RePack

NEED FOR SPEED™ PAYBACK

3 сезон

9 сезон

Бесстыжие 9 сезон

Все сериалы

все сериалы на PB.wtf

RePack

FAR CRY 5
Ребята, катастрофически не хватает 1900р. для оплаты серверов за Октябрь (всвязи с блокировками трафик упал в 3 раза), 1-2р., выручайте.
  

Человек меняет кожу (Рафаил Перельштейн) [1960, СССР, драма, шпионский фильм, VHSRip-AVC от AVP Studio] pb.wtf

Человек меняет кожу через торрент pb.wtf

Размер: 2.18 GB | Добавлен: 1 год 7 мес. назад | Торрент скачан:23 раза
Скачать  

30-03-2018 09:25 Человек меняет кожу Скачать торрент  

Человек меняет кожу
Страна: СССР
Производство: Таджикфильм

Жанр: драма, шпионский фильм
Год выпуска: 1960
Продолжительность: 02:43:22

Перевод: Не требуется
Cубтитры: нет
Оригинальная аудиодорожка: русский

Режиссер: Рафаил Перельштейн

В ролях:
Гурминдж Завкибеков, Сергей Курилов, Изольда Извицкая, Сергей Столяров, Владимир Емельянов, Сергей Голованов, Джахон Саидмурадов, Борис Виноградов, Асли (Аслиддин) Бурханов, Наталья Медведева, Юрий Киреев, Григорий Кириллов, Алексей Преснецов, Нинель Мышкова, Павел Волков, Владимир Иванов, Николай Бармин, Абдульхайр Касымов, Николай Волчков, Борис Шлихтинг...
Об актёрах подробней

Описание:
По мотивам одноименного романа Бруно Ясенского.
Идет строительство Вахшского канала — одной из крупнейших новостроек первой пятилетки. Сюда прибывают по контракту два американца. Матерый шпион полковник Бейли, представившийся безобидным путешественником мистером Мурри, позже будет пойман с поличным и разоблачен.

Исходник: VHS
Качество видео: VHSRip-AVC
Формат видео: MKV

Видео: 680->857x570 (3:2), 25,000 кадров/сек, H264 ~ 1715 kbps avg, 0.177 bit/pixel
Аудио: 48 kHz, Dolby Digital AC3 2.0, 192 kbps

Раздача от:
Общее
Полное имя : Chelovek.menyaet.kozhu.1960.VHSRip-AVC_[New-team]_by_AVP_Studio.mkv
Формат : Matroska
Версия формата : Version 2
Размер файла : 2,18 Гбайт
Продолжительность : 2 ч. 43 м.
Общий поток : 1909 Кбит/сек
Дата кодирования : UTC 2018-03-29 14:36:59
Программа кодирования : mkvmerge v6.1.0 ('Old Devil') built on Mar 4 2013 09:10:42
Библиотека кодирования : libebml v1.3.0 + libmatroska v1.4.0

Видео
Идентификатор : 1
Формат : AVC
Формат/Информация : Advanced Video Codec
Профиль формата : High@L4.1
Настройки формата : CABAC / 10 Ref Frames
Параметр CABAC формата : Да
Параметр RefFrames формата : 10 кадров
Идентификатор кодека : V_MPEG4/ISO/AVC
Продолжительность : 2 ч. 43 м.
Битрейт : 1715 Кбит/сек
Ширина : 680 пикселей
Высота : 570 пикселей
Соотношение сторон : 3:2
Соотношение сторон в оригинале : 3:2
Режим частоты кадров : Постоянный
Частота кадров : 25,000 кадров/сек
Цветовое пространство : YUV
Субдискретизация насыщенности : 4:2:0
Битовая глубина : 8 бит
Тип развёртки : Прогрессивная
Бит/(Пиксели*Кадры) : 0.177
Размер потока : 1,92 Гбайт (88%)
Библиотека кодирования : x264 core 130 r2273 b3065e6
Настройки программы : cabac=1 / ref=10 / deblock=1:-2:-1 / analyse=0x3:0x113 / me=umh / subme=10 / psy=1 / psy_rd=1.00:0.00 / mixed_ref=1 / me_range=32 / chroma_me=1 / trellis=2 / 8x8dct=1 / cqm=0 / deadzone=21,11 / fast_pskip=1 / chroma_qp_offset=-2 / threads=6 / lookahead_threads=1 / sliced_threads=0 / nr=0 / decimate=0 / interlaced=0 / bluray_compat=0 / constrained_intra=0 / bframes=8 / b_pyramid=2 / b_adapt=2 / b_bias=0 / direct=3 / weightb=1 / open_gop=0 / weightp=2 / keyint=250 / keyint_min=25 / scenecut=40 / intra_refresh=0 / rc=2pass / mbtree=0 / bitrate=1715 / ratetol=1.0 / qcomp=0.60 / qpmin=0 / qpmax=69 / qpstep=4 / cplxblur=20.0 / qblur=0.5 / ip_ratio=1.40 / pb_ratio=1.30 / aq=1:1.00
Default : Да
Forced : Нет

Аудио
Идентификатор : 2
Формат : AC-3
Формат/Информация : Audio Coding 3
Идентификатор кодека : A_AC3
Продолжительность : 2 ч. 43 м.
Вид битрейта : Постоянный
Битрейт : 192 Кбит/сек
Каналы : 2 канала
Расположение каналов : Front: L R
Частота : 48,0 КГц
Частота кадров : 31,250 кадров/сек (1536 SPF)
Битовая глубина : 16 бит
Метод сжатия : С потерями
Размер потока : 224 Мбайт (10%)
Default : Да
Forced : Нет
Statistics Tags Issue : mkvmerge v17.0.0 ('Be Ur Friend') 64-bit 2018-03-27 10:24:50 / mkvmerge v6.1.0 ('Old Devil') built on Mar 4 2013 09:10:42 2018-03-29 14:36:59
FromStats_BitRate : 192000
FromStats_Duration : 02:43:22.112000000
FromStats_FrameCount : 306316
FromStats_StreamSize : 235250688
pb.wtf



Скачать Человек меняет кожу через торрент http://i4.imageban.ru/out/2018/03/30/d9c4f56bec2072e9bc52b0de7692d124.png Скачать фильм Человек меняет кожу через торрент бесплантно в хорошем качестве Описание:По мотивам одноименного романа Бруно Ясенского.Идет строительство Вахшского канала — одной из крупнейших новостроек первой ... 10 10 2
Торрент: Зарегистрирован [2018-03-30 09:25] · скачан: 23 раз
Статус: √ проверено
Размер: 2.18 GB
Как cкачать? Как скачать Человек меняет кожу через торрент | qTorrent

% Раздел Тема Автор DL S | L
Кино СССР [ 1.46 GB ] Человек меняет кожу [1960 СССР шпионский фильм VHSRip от AVP Studio] AVP Studio Скачать
1 | 0


>> Регистрируемся здесь <<






Отзывы и комментарии о схеме читаем и пишем здесь: ---> Отзывы и комментарии о схеме

Новые благодарочки в телеграм довольных пользователей:
скриншот   скриншот   скриншот   скриншот   скриншот
    Дорогой пользователь! Огромная просьба, поблагодарите релизера, оцените раздачу и оставьте свои комментарий, если Вы скачали Человек меняет кожу через торрент бесплатно! Внесите свою лепту в развитие PiratBit!
    Комментировать посты могут только пользователи прошедшие не сложную регистрацию
    Показать сообщения:    

    Человек меняет кожу через торрент
    Скачать бесплатно Человек меняет кожу
    Человек меняет кожу скачать торрент
    Человек меняет кожу смотреть онлайн
    Cкачать фильм Человек меняет кожу бесплатно
    Человек меняет кожу скачать торрент в хорошем качестве
    Человек меняет кожу смотреть онлайн бесплатно в хорошем качестве


    Вы не можете начинать темы
    Вы не можете отвечать на сообщения
    Вы не можете редактировать свои сообщения
    Вы не можете удалять свои сообщения
    Вы не можете голосовать в опросах
    Вы не можете прикреплять файлы к сообщениям
    Вы можете скачивать файлы