Ссылка на приватное зеркало нашего сайта всего за 1$. Внимание количество ограничено!!!

2 сезон

iTunes

1 сезон

1

2 сезон

2 сезон

iTunes

1 сезон

RePack

30

Новинка

ВАЖНО

ИГРА 18+

pack

RePack

MK11
pack

Забери бонус

RePack

jed

!!Акция!!

Alien_Rage

RePack

fifa19

RePack

Assassins Creed: Odyssey

RePack

NEED FOR SPEED™ PAYBACK

4 сезон

9 сезон

Бесстыжие 9 сезон

Все сериалы

все сериалы на PB.wtf

RePack

FAR CRY 5
  

Хэп и Леонард / Hap and Leonard / Сезон: 3 / Серии: 1-6 из 6 (Джим Микл, Ник Гомез) [2018, Комедия, драма, криминал, WEBRip 720p] [MVO] (Jaskier) pb.wtf

Хэп и Леонард через торрент pb.wtf

Размер: 6.68 GB | Добавлен: 2 года 5 мес. назад | Торрент скачан:4 раза
Скачать  

30-03-2018 14:06 Хэп и Леонард Скачать торрент  

Хэп и Леонард | Hap and Leonard

Год выпуска: 2018
Страна: США
Жанр: Комедия, драма, криминал
Продолжительность: ~ 00:45:00
Перевод: Профессиональный (многоголосый закадровый) | Jaskier

Режиссёр: Джим Микл, Ник Гомез

В ролях:Джеймс Пьюрфой, Майкл Кеннет Уильямс, Поллианна МакИнтош, Нил Сэндилэндс, Джефф Поуп, Рон Рогге, Каден Вашингтон Льюис, Уилльям Шафф, Джон Тил

Описание:Сериал расскажет о необычной дружбе двух неудачников — Хэпа Коллинза и Леонарда Пайна. Хэп — белый работяга, который провел свою юность в тюрьме за то, что отказался воевать во Вьетнаме. Пайн — чернокожий открытый гей, ветеран Вьетнама, от которого отвернулась родня из-за его ориентации и проблем с управлением гневом.



Качество: WEBRip 720p
Формат: MKV
Видео: 1280x720 (16:9) | X264 | ~2583 kbps | 23.976 fps
Аудио 1: AC3, 48,0 КГц, 6 ch, 384 kbps - [RUS]
Аудио 2: AC3, 48,0 КГц, 6 ch, 384 kbps - [ENG]
Переведено и озвучено: студией Jaskier
Общее
Уникальный идентификатор                 : 233530198445984265029931215345704945437 (0xAFB047BBE173603E2C0ACA4D5C16C71D)
Полное имя                               : F:\Jaskier\Hap and Leonard Season 3 (WEBRip l 720p l Jaskier)\Hap.and.Leonard.S03E01.WEBRip.720p.Jaskier.mkv
Формат                                   : Matroska
Версия формата                           : Version 4 / Version 2
Размер файла                             : 1017 Мбайт
Продолжительность                        : 42 м. 24 с.
Режим общего битрейта                    : Переменный
Общий поток                              : 3353 Кбит/сек
Дата кодирования                         : UTC 2018-03-17 13:40:54
Программа кодирования                    : mkvmerge v19.0.0 ('Brave Captain') 64-bit
Библиотека кодирования                   : libebml v1.3.5 + libmatroska v1.4.8

Видео
Идентификатор                            : 1
Формат                                   : AVC
Формат/Информация                        : Advanced Video Codec
Профиль формата                          : High@L3.1
Настройки формата                        : CABAC / 5 Ref Frames
Параметр CABAC формата                   : Да
Параметр RefFrames формата               : 5 кадров
Идентификатор кодека                     : V_MPEG4/ISO/AVC
Продолжительность                        : 42 м. 24 с.
Вид битрейта                             : Переменный
Битрейт                                  : 2583 Кбит/сек
Максимальный битрейт                     : 4500 Кбит/сек
Ширина                                   : 1280 пикселей
Высота                                   : 720 пикселей
Соотношение сторон                       : 16:9
Режим частоты кадров                     : Постоянный
Частота кадров                           : 23,976 (24000/1001) кадра/сек
Цветовое пространство                    : YUV
Субдискретизация насыщенности            : 4:2:0
Битовая глубина                          : 8 бит
Тип развёртки                            : Прогрессивная
Бит/(Пиксели*Кадры)                      : 0.117
Размер потока                            : 783 Мбайт (77%)
Default                                  : Да
Forced                                   : Нет
Цветовой диапазон                        : Limited
Основные цвета                           : BT.709
Характеристики трансфера                 : BT.709
Коэффициенты матрицы                     : BT.709

Аудио #1
Идентификатор                            : 2
Формат                                   : AC-3
Формат/Информация                        : Audio Coding 3
Идентификатор кодека                     : A_AC3
Продолжительность                        : 42 м. 24 с.
Вид битрейта                             : Постоянный
Битрейт                                  : 384 Кбит/сек
Каналы                                   : 6 каналов
Расположение каналов                     : Front: L C R, Side: L R, LFE
Частота                                  : 48,0 КГц
Частота кадров                           : 31,250 кадров/сек (1536 SPF)
Битовая глубина                          : 16 бит
Метод сжатия                             : С потерями
Размер потока                            : 116 Мбайт (11%)
Заголовок                                : Jaskier
Язык                                     : Russian
ServiceKind/String                       : Complete Main
Default                                  : Да
Forced                                   : Нет

Аудио #2
Идентификатор                            : 3
Формат                                   : AC-3
Формат/Информация                        : Audio Coding 3
Идентификатор кодека                     : A_AC3
Продолжительность                        : 42 м. 24 с.
Вид битрейта                             : Постоянный
Битрейт                                  : 384 Кбит/сек
Каналы                                   : 6 каналов
Расположение каналов                     : Front: L C R, Side: L R, LFE
Частота                                  : 48,0 КГц
Частота кадров                           : 31,250 кадров/сек (1536 SPF)
Битовая глубина                          : 16 бит
Метод сжатия                             : С потерями
Размер потока                            : 116 Мбайт (11%)
Язык                                     : English
ServiceKind/String                       : Complete Main
Default                                  : Нет
Forced                                   : Нет
скриншот  скриншот  скриншот  
Когда раздача ведётся путём добавления новых серий, при каждом добавлении создётся новый торрент. Чтобы начать докачку новой серии, пользователям необходимо сделать следующее:
(1) остановить скачивание,
(2) удалить старый торрент у себя из клиента (старые серии удалять не надо),
(3) скачать новый торрент и запустить его у себя в клиенте вместо старого, при этом указать клиенту путь в старую папку, куда и должно происходить скачивание новых серий.
Ваш клиент при этом должен произвести хеширование (проверку) старой папки (если не производит сам - помогите ему сделать это), и будет докачивать только те серии, которых у вас ещё нет. Старые серии при этом не удаляются, а продолжают раздаваться!
Eсли вы уже удалили старые серии, то предотвратить повторную закачку старых серий можно, отжав галочку в соответсвующих местах при запуске нового торрента. По возможности, желательно не удалять старые серии как можно дольше, чтобы релизёр не столько продолжал раздавать старые серии, а смог сконцентрироваться на новых.
pb.wtf



Скачать Хэп и Леонард через торрент http://i101.fastpic.ru/big/2018/0317/d0/3139f0d02f77af863f011362d78610d0.png Скачать фильм Хэп и Леонард через торрент бесплантно в хорошем качестве Описание:Сериал расскажет о необычной дружбе двух неудачников — Хэпа Коллинза и Леонарда Пайна. Хэп — белый работяга, который провел свою ... 10 10 2
Торрент: Зарегистрирован [2018-06-27 09:54] · скачан: 4 раз
Статус: √ проверено
Размер: 6.68 GB
Как cкачать? Как скачать Хэп и Леонард через торрент | qTorrent

% Раздел Тема Автор DL S | L
Зарубежные сериалы [ 3.17 GB ] Хэп и Леонард / Hap and Leonard / Сезон: 3 / Серии: 1-6 из 6 [2018 WEBRip] [MVO] killermax2013 Скачать
1 | 0
Зарубежные сериалы [ 8.68 GB ] Хэп и Леонард / Hap and Leonard / Сезон: 3 / Серии: 1-6 из 6 [2018 WEB-DL 720p] MVO [NewStudio] bober100 Скачать
1 | 0
Зарубежные сериалы [ 7.67 GB ] Хэп и Леонард / Hap and Leonard / Сезон: 3 / Серии: 1-6 из 6 [2018 WEB-DL 720p] MVO [AlexFilm] bober100 Скачать
1 | 0
Зарубежные сериалы [ 3.47 GB ] Хэп и Леонард / Hap and Leonard / Сезон: 3 / Серии: 1-6 из 6 [2018 WEB-DLRip] MVO [AlexFilm] bober100 Скачать
1 | 0


Последний раз редактировалось: killermax2013 (2018-06-27 09:54), всего редактировалось 1 раз

28-11-2019 20:33  

Отключить всю рекламу на сайте

13-04-2018 17:02 Хэп и Леонард Скачать торрент  

+4-5 pb.wtf



    Дорогой пользователь! Огромная просьба, поблагодарите релизера, оцените раздачу и оставьте свои комментарий, если Вы скачали Хэп и Леонард через торрент бесплатно! Внесите свою лепту в развитие PiratBit!
    Комментировать посты могут только пользователи прошедшие не сложную регистрацию
    Показать сообщения:    

    Хэп и Леонард через торрент
    Скачать бесплатно Хэп и Леонард
    Хэп и Леонард скачать торрент
    Хэп и Леонард смотреть онлайн
    Cкачать фильм Хэп и Леонард бесплатно
    Хэп и Леонард скачать торрент в хорошем качестве
    Хэп и Леонард смотреть онлайн бесплатно в хорошем качестве


    Вы не можете начинать темы
    Вы не можете отвечать на сообщения
    Вы не можете редактировать свои сообщения
    Вы не можете удалять свои сообщения
    Вы не можете голосовать в опросах
    Вы не можете прикреплять файлы к сообщениям
    Вы можете скачивать файлы