2 сезон

iTunes

MVO

1

2 сезон

iTunes

iTunes

1 сезон

RePack

30

Новинка

ВАЖНО

ИГРА 18+

pack

RePack

MK11
pack

Легкие деньги

RePack

jed

RePack

fifa19

RePack

RDR2

RePack

NEED FOR SPEED™ PAYBACK

4 сезон

9 сезон

Бесстыжие 9 сезон

Все сериалы

все сериалы на PB.wtf

RePack

FAR CRY 5

Anonymous, добрый вечер, мы не успеваем собрать деньги на оплату серверов за декабрь и январь, помогите нам пожалуйста в это трудное время. В качестве благодарности мы отключим Вам всю рекламу на сайте (укажите свой ник в строку Ваше имя)!

×
  
Magnet ссылка

Звездные войны: Последние джедаи в 3Д / Star Wars: Episode VIII - The Last Jedi 3D (Райан Джонсон / Rian Johnson) [2017, фантастика, фэнтези, боевик, приключения, BDrip, 1080p] [Лицензия] OverUnder / Вертикальная стереопара pb.wtf

Звездные войны: Последние джедаи в 3Д через торрент pb.wtf

Размер: 26.38 GB | Добавлен: 2 года 8 мес. назад | Торрент скачан:46 раз
Скачать  

30-03-2018 16:25 Звездные войны: Последние джедаи в 3Д Скачать торрент  

Звездные войны: Последние джедаи / Star Wars: Episode VIII - The Last Jedi

Год выпуска: 2017
Страна: США (Lucasfilm Ltd., Walt Disney Pictures, Ram Bergman Productions)
Жанр: фантастика, фэнтези, боевик, приключения
Продолжительность: 02:31:52

Перевод: Профессиональный дублированный(Лицензия)
Русские субтитры: нет
Режиссер на русском: Райан Джонсон / Rian Johnson

В ролях: Джон Бойега, Дэйзи Ридли, Оскар Айзек, Адам Драйвер, Донал Глисон, Марк Хэмилл, Макс фон Сюдов, Энди Серкис, Лупита Нионго, Энтони Дэниелс, Питер Мейхью, Гвендолин Кристи, Пип Андерсон, Саймон Пегг, Киран Шах, Саша Фрост, Пип Торренс, Эндрю Джек

Описание: Новая история о противостоянии света и тьмы, добра и зла начинается после гибели Хана Соло. В Галактике, где Первый Орден и Сопротивление яростно сражаются друг с другом в войне, героиня Рей пробудила в себе Силу. Но что произойдет, когда она встретится с единственным оставшимся в живых рыцарем-джедаем — Люком Скайуокером?
Кайло Рен перешел на Темную сторону Силы и убил собственного отца, заняв высокую позицию в Первом Ордене. Но куда приведут его неуемные амбиции, подаренные по наследству грозным дедом Дартом Вейдером? Ситуация обострится еще больше, когда мать Кайло, лидер Сопротивления Лея, вместе с По, Финном и BB-8 приступит к новой миссии.

Сэмпл: http://sendfile.su/1415699

Качество: BDrip, 1080p
Контейнер: MKV
Формат 3D: OverUnder / Вертикальная стереопара
Порядок ракурсов: левый ракурс первый
Видео кодек: x264
Аудио кодек: AC3
Видео: AVC / High@L5.0 / 23,976 fps / 1920х2160 / 23,1 Мбит/сек
Аудио: Русский / AC3 / 48 KHz / 5.1 ch / 640 Кбит/сек(Лицензия)
Аудио 2: Английский / AC3 / 48 KHz / 5.1 ch / 640 Кбит/сек

ВНИМАНИЕ ! На встроенных ТВ-плеерах работать не будет!!!

ТВ Samsung в названии которого есть надпись Ultra HD , и LG Ultra HD 800 серии, LG C6P, Xiaomi Mi TV 2 воспроизводят полные стереопары встроенными плеерами
Железные плееры на которых воспроизводятся полные стереопары:Popcorn C-200 , Dune HD Smart D1 , Dune HD DUO , Dune HD Smart H1 , Dune HD Smart B1 , Dune HD Max , Dune HD TV-303D, Dune HD TV-102, Dune HD Base 3D, Philips HMP7001, Aura HD, MECOOL BB2
Чтобы изображение было на весь экран в плеере выставляем, если рип 1920х1600 - то выставляем 2.35:1 , если 1920х2160 - то выставляем 16:9

27.04.2018. Релиз обновлён - русская звуковая дорога iTunes заменена на лицензию.
Желающие, скачайте заново торрент-файл.
Общее
Уникальный идентификатор : 217822781983478885902298876171494843131 (0xA3DF244F926AAA569C8C5438813F62FB)
Полное имя : E:\Star Wars Episode VIII The Last Jedi.Rip by SeRoGa00.mkv
Формат : Matroska
Версия формата : Version 2
Размер файла : 26,1 Гбайт
Продолжительность : 2 ч. 31 м.
Общий поток : 24,6 Мбит/сек
Дата кодирования : UTC 2018-03-30 15:27:34
Программа кодирования : mkvmerge v3.4.0 ('Rapunzel') сборка от May 15 2010 09:38:20
Библиотека кодирования : libebml v0.8.0 + libmatroska v0.9.0

Видео
Идентификатор : 1
Формат : AVC
Формат/Информация : Advanced Video Codec
Профиль формата : High@L5.0
Параметр CABAC формата : Да
Параметр ReFrames формата : 4 кадра
Идентификатор кодека : V_MPEG4/ISO/AVC
Продолжительность : 2 ч. 31 м.
Битрейт : 23,1 Мбит/сек
Ширина : 1920 пикселей
Высота : 2160 пикселей
Соотношение сторон : 0,889
Частота кадров : 23,976 кадра/сек
Цветовое пространство : YUV
Субдискретизация насыщенности : 4:2:0
Битовая глубина : 8 бит
Тип развёртки : Прогрессивная
Бит/(Пиксели*Кадры) : 0.232
Размер потока : 24,5 Гбайт (94%)
Заголовок : Rip by SeRoGa00
Библиотека кодирования : x264 core 155 r2901 7d0ff22
Настройки программы : cabac=1 / ref=4 / deblock=1:-3:-3 / analyse=0x3:0x113 / me=umh / subme=10 / psy=1 / psy_rd=1.00:0.15 / mixed_ref=1 / me_range=24 / chroma_me=1 / trellis=2 / 8x8dct=1 / cqm=0 / deadzone=21,11 / fast_pskip=1 / chroma_qp_offset=-3 / threads=12 / lookahead_threads=6 / sliced_threads=0 / nr=0 / decimate=0 / interlaced=0 / bluray_compat=0 / constrained_intra=0 / bframes=10 / b_pyramid=2 / b_adapt=2 / b_bias=0 / direct=3 / weightb=1 / open_gop=0 / weightp=2 / keyint=250 / keyint_min=23 / scenecut=40 / intra_refresh=0 / rc_lookahead=60 / rc=crf / mbtree=1 / crf=18.0 / qcomp=0.60 / qpmin=10 / qpmax=69 / qpstep=4 / vbv_maxrate=40000 / vbv_bufsize=40000 / crf_max=0.0 / nal_hrd=none / filler=0 / ip_ratio=1.40 / aq=1:1.00
Язык : English
Default : Нет
Forced : Нет

Аудио #1
Идентификатор : 2
Формат : AC-3
Формат/Информация : Audio Coding 3
Расширение режима : CM (complete main)
Параметр Endianness формата : Big
Идентификатор кодека : A_AC3
Продолжительность : 2 ч. 31 м.
Вид битрейта : Постоянный
Битрейт : 640 Кбит/сек
Каналы : 6 каналов
Расположение каналов : Front: L C R, Side: L R, LFE
Частота : 48,0 КГц
Битовая глубина : 16 бит
Метод сжатия : С потерями
Размер потока : 417 Мбайт (2%)
Язык : Russian
Default : Да
Forced : Нет

Аудио #2
Идентификатор : 3
Формат : AC-3
Формат/Информация : Audio Coding 3
Расширение режима : CM (complete main)
Параметр Endianness формата : Big
Идентификатор кодека : A_AC3
Продолжительность : 2 ч. 31 м.
Вид битрейта : Постоянный
Битрейт : 640 Кбит/сек
Каналы : 6 каналов
Расположение каналов : Front: L C R, Side: L R, LFE
Частота : 48,0 КГц
Битовая глубина : 16 бит
Метод сжатия : С потерями
Размер потока : 695 Мбайт (3%)
Язык : English
Default : Нет
Forced : Нет

Меню
00:00:00.000 : en:00:00:00.000
00:00:18.643 : en:00:00:18.643
00:01:45.729 : en:00:01:45.729
00:03:11.816 : en:00:03:11.816
00:07:43.295 : en:00:07:43.295
00:12:48.433 : en:00:12:48.433
00:13:44.572 : en:00:13:44.572
00:16:29.278 : en:00:16:29.278
00:19:59.280 : en:00:19:59.280
00:22:51.368 : en:00:22:51.368
00:26:04.980 : en:00:26:04.980
00:27:22.848 : en:00:27:22.848
00:31:24.757 : en:00:31:24.757
00:32:54.681 : en:00:32:54.681
00:35:27.666 : en:00:35:27.666
00:38:11.496 : en:00:38:11.496
00:41:53.427 : en:00:41:53.427
00:44:29.541 : en:00:44:29.541
00:46:51.474 : en:00:46:51.474
00:51:41.931 : en:00:51:41.931
00:53:50.059 : en:00:53:50.059
00:55:41.503 : en:00:55:41.503
00:57:39.581 : en:00:57:39.581
00:59:16.635 : en:00:59:16.635
01:02:05.847 : en:01:02:05.847
01:03:07.699 : en:01:03:07.699
01:05:41.728 : en:01:05:41.728
01:07:03.476 : en:01:07:03.476
01:10:25.720 : en:01:10:25.720
01:13:30.322 : en:01:13:30.322
01:17:43.449 : en:01:17:43.449
01:20:53.055 : en:01:20:53.055
01:24:17.969 : en:01:24:17.969
01:26:23.219 : en:01:26:23.219
01:27:59.524 : en:01:27:59.524
01:30:49.359 : en:01:30:49.359
01:32:54.568 : en:01:32:54.568
01:35:53.706 : en:01:35:53.706
01:37:10.615 : en:01:37:10.615
01:39:12.863 : en:01:39:12.863
01:42:07.662 : en:01:42:07.662
01:45:03.713 : en:01:45:03.713
01:49:35.694 : en:01:49:35.694
01:52:20.608 : en:01:52:20.608
01:56:04.748 : en:01:56:04.748
01:58:52.082 : en:01:58:52.082
02:03:11.132 : en:02:03:11.132
02:06:39.757 : en:02:06:39.757
02:11:43.604 : en:02:11:43.604
02:15:12.103 : en:02:15:12.103
02:20:16.699 : en:02:20:16.699
02:23:39.693 : en:02:23:39.693
скриншот  
скриншот  
скриншот  
скриншот  
скриншот  
скриншот  
pb.wtf



Скачать Звездные войны: Последние джедаи в 3Д через торрент https://a.radikal.ru/a33/1803/06/f5c2502a0a80.png Скачать фильм Звездные войны: Последние джедаи в 3Д через торрент бесплантно в хорошем качестве Описание: Новая история о противостоянии света и тьмы, добра и зла начинается после гибели Хана Соло. В Галактике, где Первый Орден и ... 4.6 10 5
Info! Золотая раздача, скачанное не засчитывается.
Торрент: Зарегистрирован [2018-04-27 11:14] · скачан: 46 раз
Статус: √ проверено
Размер: 26.38 GB
Как cкачать? Как скачать Звездные войны: Последние джедаи в 3Д через торрент | UTorrent

28-11-2019 20:33  

Отключить всю рекламу на сайте

27-04-2018 11:15 Звездные войны: Последние джедаи в 3Д Скачать торрент  

27.04.2018. Релиз обновлён - русская звуковая дорога iTunes заменена на лицензию.
Желающие, скачайте заново торрент-файл.pb.wtf



    Дорогой пользователь! Огромная просьба, поблагодарите релизера, оцените раздачу и оставьте свои комментарий, если Вы скачали Звездные войны: Последние джедаи в 3Д через торрент бесплатно! Внесите свою лепту в развитие PiratBit!
    Комментировать посты могут только пользователи прошедшие не сложную регистрацию
    Показать сообщения:    

    Звездные войны: Последние джедаи в 3Д через торрент
    Скачать бесплатно Звездные войны: Последние джедаи в 3Д
    Звездные войны: Последние джедаи в 3Д скачать торрент
    Звездные войны: Последние джедаи в 3Д смотреть онлайн
    Cкачать фильм Звездные войны: Последние джедаи в 3Д бесплатно
    Звездные войны: Последние джедаи в 3Д скачать торрент в хорошем качестве
    Звездные войны: Последние джедаи в 3Д смотреть онлайн бесплатно в хорошем качестве


    Вы не можете начинать темы
    Вы не можете отвечать на сообщения
    Вы не можете редактировать свои сообщения
    Вы не можете удалять свои сообщения
    Вы не можете голосовать в опросах
    Вы не можете прикреплять файлы к сообщениям
    Вы можете скачивать файлы