2 сезон

iTunes

MVO

1

2 сезон

iTunes

iTunes

1 сезон

RePack

30

Новинка

ВАЖНО

ИГРА 18+

pack

RePack

MK11
pack

Легкие деньги

RePack

jed

RePack

fifa19

RePack

RDR2

RePack

NEED FOR SPEED™ PAYBACK

4 сезон

9 сезон

Бесстыжие 9 сезон

Все сериалы

все сериалы на PB.wtf

RePack

FAR CRY 5

Anonymous, доброе утро, мы не успеваем собрать деньги на оплату серверов за декабрь и январь, помогите нам пожалуйста в это трудное время. В качестве благодарности мы отключим Вам всю рекламу на сайте (укажите свой ник в строку Ваше имя)!

×
  
Magnet ссылка

Иностранец / The Foreigner (Мартин Кэмпбелл) [2017, боевик, триллер, BDRip-AVC] DUB [Лицензия] pb.wtf

Иностранец через торрент pb.wtf

Размер: 1.46 GB | Добавлен: 2 года 9 мес. назад | Торрент скачан:236 раз
Скачать  

30-03-2018 22:56 Иностранец Скачать торрент  

Иностранец / The Foreigner
Год выпуска: 2017
Страна: Великобритания Китай США
Жанр: боевик, триллер
Продолжительность: 01:53:17
Перевод: Дублированный | Лицензия
Субтитры: Русские, английские

Режиссер: Мартин Кэмпбелл

rating

В ролях:

Кэти Льюнг, Джеки Чан, Пирс Броснан, Руфус Джонс, Марк Тэнди, Джон Кронин, Каолан Бирн, Донна Бернард, Аарон Монахэн

Описание:

Бывший спецагент, ветеран вьетнамской войны Цюань давно сложил оружие и завёл мирную жизнь. Но после того, как в теракте прямо на глазах погибает его дочь-подросток, видя, что власти не спешат разыскивать преступников, Цюань сам начинает поиск убийцы. Он пойдет на всё, чтобы совершить праведное возмездие…

Качество: BDRip-AVC
Формат: MKV

Видео: 720x302 (2.35:1), 23,976 fps, x264 ~1 386 kbps avg, 0.266 bit/pixel
Аудио: 48 kHz, AC3 Dolby Digital, 3/2 (L,C,R,l,r) + LFE ch, ~448.00 kbps avg | RUS (Лицензия)
скриншот   скриншот   скриншот   скриншот   скриншот   скриншот  

Общее
Уникальный идентификатор : 241415399550920189645952704537262696072 (0xB59EEA29FC0815B09F5069A982862688)
Полное имя : E:OlLanDGroupThe.Foreigner.2017.BDRip(AVC).OlLanDGroup.mkv
Формат : Matroska
Версия формата : Version 2
Размер файла : 1,46 Гбайт
Продолжительность : 1 ч. 53 м.
Общий поток : 1833 Кбит/сек
Название фильма : The.Foreigner.2017 #TorpedoUK#
Дата кодирования : UTC 2018-03-30 17:01:17
Программа кодирования : mkvmerge v7.8.0 ('River Man') 32bit built on Apr 3 2015 12:11:22
Библиотека кодирования : libebml v1.3.1 + libmatroska v1.4.2

Видео
Идентификатор : 1
Формат : AVC
Формат/Информация : Advanced Video Codec
Профиль формата : High@L4.1
Параметр CABAC формата : Да
Параметр ReFrames формата : 10 кадров
Идентификатор кодека : V_MPEG4/ISO/AVC
Продолжительность : 1 ч. 53 м.
Битрейт : 1386 Кбит/сек
Ширина : 720 пикселей
Высота : 302 пикселя
Соотношение сторон : 2,40:1
Режим частоты кадров : Постоянный
Частота кадров : 23,976 (24000/1001) кадра/сек
Цветовое пространство : YUV
Субдискретизация насыщенности : 4:2:0
Битовая глубина : 8 бит
Тип развёртки : Прогрессивная
Бит/(Пиксели*Кадры) : 0.266
Размер потока : 1,07 Гбайт (74%)
Библиотека кодирования : x264 core 146 r2538 121396c
Настройки программы : cabac=1 / ref=10 / deblock=1:-2:-3 / analyse=0x3:0x133 / me=umh / subme=11 / psy=1 / psy_rd=0.97:0.07 / mixed_ref=1 / me_range=48 / chroma_me=1 / trellis=2 / 8x8dct=1 / cqm=0 / deadzone=21,11 / fast_pskip=1 / chroma_qp_offset=-3 / threads=6 / lookahead_threads=1 / sliced_threads=0 / nr=0 / decimate=1 / interlaced=0 / bluray_compat=0 / constrained_intra=0 / bframes=10 / b_pyramid=2 / b_adapt=2 / b_bias=0 / direct=3 / weightb=1 / open_gop=0 / weightp=2 / keyint=240 / keyint_min=23 / scenecut=40 / intra_refresh=0 / rc_lookahead=40 / rc=2pass / mbtree=0 / bitrate=1386 / ratetol=1.0 / qcomp=0.60 / qpmin=0 / qpmax=69 / qpstep=4 / cplxblur=20.0 / qblur=0.5 / vbv_maxrate=50000 / vbv_bufsize=62500 / nal_hrd=none / filler=0 / ip_ratio=1.40 / pb_ratio=1.30 / aq=1:1.00
Default : Да
Forced : Нет

Аудио
Идентификатор : 2
Формат : AC-3
Формат/Информация : Audio Coding 3
Расширение режима : CM (complete main)
Параметр Endianness формата : Big
Идентификатор кодека : A_AC3
Продолжительность : 1 ч. 53 м.
Вид битрейта : Постоянный
Битрейт : 448 Кбит/сек
Каналы : 6 каналов
Расположение каналов : Front: L C R, Side: L R, LFE
Частота : 48,0 КГц
Частота кадров : 31,250 кадров/сек (1536 spf)
Битовая глубина : 16 бит
Метод сжатия : С потерями
Размер потока : 365 Мбайт (24%)
Заголовок : Lic
Язык : Russian
Default : Да
Forced : Нет

Текст #1
Идентификатор : 3
Формат : UTF-8
Идентификатор кодека : S_TEXT/UTF8
Идентификатор кодека/Информация : UTF-8 Plain Text
Заголовок : Full
Язык : Russian
Default : Нет
Forced : Нет

Текст #2
Идентификатор : 4
Формат : UTF-8
Идентификатор кодека : S_TEXT/UTF8
Идентификатор кодека/Информация : UTF-8 Plain Text
Заголовок : Full
Язык : English
Default : Нет
Forced : Нет

Меню
00:00:00.000 : en:00:00:00.000
00:08:19.541 : en:00:08:19.541
00:15:49.574 : en:00:15:49.574
00:21:47.765 : en:00:21:47.765
00:27:04.164 : en:00:27:04.164
00:32:09.511 : en:00:32:09.511
00:35:24.164 : en:00:35:24.164
00:38:30.934 : en:00:38:30.934
00:43:50.169 : en:00:43:50.169
00:47:38.189 : en:00:47:38.189
00:54:10.497 : en:00:54:10.497
01:01:42.324 : en:01:01:42.324
01:08:07.333 : en:01:08:07.333
01:14:14.033 : en:01:14:14.033
01:18:42.927 : en:01:18:42.927
01:23:26.877 : en:01:23:26.877
01:29:18.812 : en:01:29:18.812
01:38:55.012 : en:01:38:55.012
01:43:45.928 : en:01:43:45.928
01:47:09.298 : en:01:47:09.298

pb.wtf



Скачать Иностранец через торрент http://lostpix.com/img/2018-03/30/t3ijy1y4ficibtzc7yi2mr1kn.jpg Скачать фильм Иностранец через торрент бесплантно в хорошем качестве Описание: Бывший спецагент, ветеран вьетнамской войны Цюань давно сложил оружие и завёл мирную жизнь. Но после того, как в теракте прямо на ... 9.4 10 5
Торрент: Зарегистрирован [2018-03-30 22:56] · скачан: 236 раз
Статус: √ проверено
Размер: 1.46 GB
Как cкачать? Как скачать Иностранец через торрент | UTorrent

% Раздел Тема Автор DL S | L
Фильмы [HD 720p, 1080p] (Хороший звук DUB, MVO) [ 8.71 GB ] Иностранец / The Foreigner [2017 BDRip 1080p] [GER Transfer] DUB + AVO - KORSAR kisa1980 Скачать
2 | 0
Фильмы (Blu-ray, BD-Remux, HDDVD) [ 31.57 GB ] Иностранец / The Foreigner [2017 BD Remux 1080p] DUB [] bober100 Скачать
2 | 0
Фильмы 2017 [DVDrip, WEB-DLRip, HDrip] (DUB, MVO) [ 746 MB ] Иностранец / The Foreigner [2017 BDRip-AVC] sokol_ok Скачать
2 | 0
Фильмы 2017 [DVDrip, WEB-DLRip, HDrip] (DUB, MVO) [ 2.9 GB ] Иностранец / The Foreigner [2017 BDRip-AVC] + AVO [Карповский Живов] sokol_ok Скачать
1 | 0
Фильмы 2017 [DVDrip, WEB-DLRip, HDrip] (DUB, MVO) [ 1.34 GB ] Иностранец / The Foreigner [2017 BDRip-AVC] sokol_ok Скачать
2 | 0
Фильмы [HD 720p, 1080p] (Хороший звук DUB, MVO) [ 7.24 GB ] Иностранец / The Foreigner [2017 BDRip 720p] DUB [] bober100 Скачать
1 | 0
Фильмы [HD 720p, 1080p] (Хороший звук DUB, MVO) [ 14.39 GB ] Иностранец / The Foreigner [2017 BDRip 1080p] DUB [] bober100 Скачать
1 | 0

28-11-2019 20:33  

Отключить всю рекламу на сайте

    Дорогой пользователь! Огромная просьба, поблагодарите релизера, оцените раздачу и оставьте свои комментарий, если Вы скачали Иностранец через торрент бесплатно! Внесите свою лепту в развитие PiratBit!
    Комментировать посты могут только пользователи прошедшие не сложную регистрацию
    Показать сообщения:    

    Иностранец через торрент
    Скачать бесплатно Иностранец
    Иностранец скачать торрент
    Иностранец смотреть онлайн
    Cкачать фильм Иностранец бесплатно
    Иностранец скачать торрент в хорошем качестве
    Иностранец смотреть онлайн бесплатно в хорошем качестве


    Вы не можете начинать темы
    Вы не можете отвечать на сообщения
    Вы не можете редактировать свои сообщения
    Вы не можете удалять свои сообщения
    Вы не можете голосовать в опросах
    Вы не можете прикреплять файлы к сообщениям
    Вы можете скачивать файлы