2 сезон

iTunes

MVO

1

2 сезон

iTunes

iTunes

1 сезон

RePack

30

Ultimate

ВАЖНО

ИГРА 18+

pack

RePack

MK11
pack

Легкие деньги

RePack

jed

RePack

fifa19

RePack

RDR2

RePack

NEED FOR SPEED™ PAYBACK

4 сезон

9 сезон

Бесстыжие 9 сезон

Все сериалы

все сериалы на PB.wtf

RePack

FAR CRY 5

Anonymous, добрый вечер, мы не успеваем собрать деньги на оплату серверов за декабрь и январь, помогите нам пожалуйста в это трудное время. В качестве благодарности мы отключим Вам всю рекламу на сайте (укажите свой ник в строку Ваше имя)!

×
  
Magnet ссылка

Звездные войны: Последние джедаи в 3Д / Star Wars: Episode VIII - The Last Jedi 3D (Райан Джонсон) [2017, фантастика, фэнтези, боевик, приключения, BDRip 1080p] AVO [Живов] +DUB [iTunes] [Anamorph SideBySide / Горизонтальная анаморфная стереопара] pb.wtf

Звездные войны: Последние джедаи в 3Д через торрент pb.wtf

Размер: 20.67 GB | Добавлен: 2 года 9 мес. назад | Торрент скачан:100 раз
Скачать  

30-03-2018 23:11 Звездные войны: Последние джедаи в 3Д Скачать торрент  


Звездные войны: Последние джедаи в 3Д / Star Wars: Episode VIII - The Last Jed 3Di
Год выпуска: 2017
Страна: США
Жанр: фантастика, фэнтези, боевик, приключения
Продолжительность: 02:31:51
Перевод:

#1: Дублированный | iTunes
#2: Авторский | Живов

Субтитры: Русские (forced, full, SDH), английские

Режиссер: Райан Джонсон

rating

В ролях:

Марк Хэмилл, Кэрри Фишер, Адам Драйвер, Дэйзи Ридли, Джон Бойега, Оскар Айзек, Энди Серкис, Лупита Нионго, Донал Глисон, Энтони Дэниелс

Описание:

Новая история о противостоянии света и тьмы, добра и зла начинается после гибели Хана Соло. В Галактике, где Первый Орден и Сопротивление яростно сражаются друг с другом в войне, героиня Рей пробудила в себе Силу. Но что произойдет, когда она встретится с единственным оставшимся в живых рыцарем-джедаем - Люком Скайуокером?

Кайло Рен перешел на Темную сторону Силы и убил собственного отца, заняв высокую позицию в Первом Ордене. Но куда приведут его неуемные амбиции, подаренные по наследству грозным дедом Дартом Вейдером? Ситуация обострится еще больше, когда мать Кайло, лидер Сопротивления Лея, вместе с По, Финном и BB-8 приступит к новой миссии.

Качество: BDRip 1080p
Формат: MKV

Видео: MPEG-4 AVC, 1920x1080, 15.6 Мbit/s, 23.976 fps
Аудио#1: 48 kHz, AC3, 5.1, 384 Kbps | Дублированный | iTunes | RUS |
Аудио#2: 48 kHz, AC3, 5.1, 448 Kbps | Авторский | RUS |
Аудио#3: 48 kHz, DTS, 5.1, 1510 Kbps | Авторский | RUS |
Аудио#4: 48 kHz, DTS, 5.1, 1510 Kbps | Оригинал | ENG |


Формат 3D: Anamorph SideBySide / Горизонтальная анаморфная стереопара.
Порядок ракурсов: левый ракурс первый
скриншот   скриншот   скриншот   скриншот   скриншот  

General
Unique ID : 315548094159343928969157157896872993477 (0xED645A33305A90C5044EFFE4354722C5)
Complete name : C:Video111Star.Wars.The.Last.Jedi.2017.3D.HSBS.BDRip.1080p.ExKinoRay.mkv
Format : Matroska
Format version : Version 4 / Version 2
File size : 20.7 GiB
Duration : 2 h 32 min
Overall bit rate : 19.5 Mb/s
Movie name : Star Wars The Last Jedi 2017 from ExKinoRay
Encoded date : UTC 2018-03-30 14:18:28
Writing application : mkvmerge v21.0.0 ('Tardigrades Will Inherit The Earth') 64-bit
Writing library : libebml v1.3.5 + libmatroska v1.4.8

Video
ID : 1
Format : AVC
Format/Info : Advanced Video Codec
Format profile : High@L4.1
Format settings : CABAC / 4 Ref Frames
Format settings, CABAC : Yes
Format settings, ReFrames : 4 frames
Codec ID : V_MPEG4/ISO/AVC
Duration : 2 h 31 min
Bit rate : 15.6 Mb/s
Width : 1 920 pixels
Height : 1 080 pixels
Display aspect ratio : 16:9
Frame rate mode : Constant
Frame rate : 23.976 (24000/1001) FPS
Color space : YUV
Chroma subsampling : 4:2:0
Bit depth : 8 bits
Scan type : Progressive
Bits/(Pixel*Frame) : 0.314
Stream size : 16.6 GiB (80%)
Writing library : x264 core 148 r2705 3f5ed56
Encoding settings : cabac=1 / ref=4 / deblock=1:-2:-2 / analyse=0x3:0x133 / me=umh / subme=10 / psy=1 / psy_rd=1.05:0.05 / mixed_ref=1 / me_range=32 / chroma_me=1 / trellis=2 / 8x8dct=1 / cqm=0 / deadzone=21,11 / fast_pskip=0 / chroma_qp_offset=-3 / threads=12 / lookahead_threads=2 / sliced_threads=0 / nr=0 / decimate=0 / interlaced=0 / bluray_compat=0 / constrained_intra=0 / bframes=8 / b_pyramid=2 / b_adapt=2 / b_bias=0 / direct=3 / weightb=1 / open_gop=0 / weightp=2 / keyint=240 / keyint_min=23 / scenecut=40 / intra_refresh=0 / rc_lookahead=50 / rc=2pass / mbtree=0 / bitrate=15634 / ratetol=1.0 / qcomp=0.60 / qpmin=0 / qpmax=51 / qpstep=4 / cplxblur=20.0 / qblur=0.5 / vbv_maxrate=50000 / vbv_bufsize=62500 / nal_hrd=none / filler=0 / ip_ratio=1.40 / pb_ratio=1.30 / aq=3:0.80
Language : English
Default : Yes
Forced : No

Audio #1
ID : 2
Format : AC-3
Format/Info : Audio Coding 3
Codec ID : A_AC3
Duration : 2 h 32 min
Bit rate mode : Constant
Bit rate : 384 kb/s
Channel(s) : 6 channels
Channel positions : Front: L C R, Side: L R, LFE
Sampling rate : 48.0 kHz
Frame rate : 31.250 FPS (1536 SPF)
Bit depth : 16 bits
Compression mode : Lossy
Stream size : 418 MiB (2%)
Title : iTunes
Language : Russian
Service kind : Complete Main
Default : Yes
Forced : Yes

Audio #2
ID : 3
Format : AC-3
Format/Info : Audio Coding 3
Codec ID : A_AC3
Duration : 2 h 31 min
Bit rate mode : Constant
Bit rate : 448 kb/s
Channel(s) : 6 channels
Channel positions : Front: L C R, Side: L R, LFE
Sampling rate : 48.0 kHz
Frame rate : 31.250 FPS (1536 SPF)
Bit depth : 16 bits
Compression mode : Lossy
Stream size : 487 MiB (2%)
Title : AVO [Живов]
Language : Russian
Service kind : Complete Main
Default : No
Forced : No

Audio #3
ID : 4
Format : DTS
Format/Info : Digital Theater Systems
Codec ID : A_DTS
Duration : 2 h 31 min
Bit rate mode : Constant
Bit rate : 1 509 kb/s
Channel(s) : 6 channels
Channel positions : Front: L C R, Side: L R, LFE
Sampling rate : 48.0 kHz
Frame rate : 93.750 FPS (512 SPF)
Bit depth : 24 bits
Compression mode : Lossy
Stream size : 1.60 GiB (8%)
Title : AVO [Живов]
Language : Russian
Default : No
Forced : No

Audio #4
ID : 5
Format : DTS
Format/Info : Digital Theater Systems
Codec ID : A_DTS
Duration : 2 h 31 min
Bit rate mode : Constant
Bit rate : 1 509 kb/s
Channel(s) : 6 channels
Channel positions : Front: L C R, Side: L R, LFE
Sampling rate : 48.0 kHz
Frame rate : 93.750 FPS (512 SPF)
Bit depth : 24 bits
Compression mode : Lossy
Stream size : 1.60 GiB (8%)
Title : Original
Language : English
Default : No
Forced : No

Text #1
ID : 6
Format : UTF-8
Codec ID : S_TEXT/UTF8
Codec ID/Info : UTF-8 Plain Text
Duration : 2 h 22 min
Bit rate : 1 b/s
Count of elements : 16
Stream size : 1.05 KiB (0%)
Title : Forced
Language : Russian
Default : Yes
Forced : Yes

Text #2
ID : 7
Format : UTF-8
Codec ID : S_TEXT/UTF8
Codec ID/Info : UTF-8 Plain Text
Duration : 2 h 20 min
Bit rate : 64 b/s
Count of elements : 1580
Stream size : 66.9 KiB (0%)
Title : Full [iTunes]
Language : Russian
Default : No
Forced : No

Text #3
ID : 8
Format : UTF-8
Codec ID : S_TEXT/UTF8
Codec ID/Info : UTF-8 Plain Text
Duration : 2 h 23 min
Bit rate : 73 b/s
Count of elements : 1980
Stream size : 77.4 KiB (0%)
Title : SDH [iTunes]
Language : Russian
Default : No
Forced : No

Text #4
ID : 9
Format : UTF-8
Codec ID : S_TEXT/UTF8
Codec ID/Info : UTF-8 Plain Text
Duration : 2 h 20 min
Bit rate : 39 b/s
Count of elements : 1569
Stream size : 40.4 KiB (0%)
Title : Full
Language : English
Default : No
Forced : No

Text #5
ID : 10
Format : UTF-8
Codec ID : S_TEXT/UTF8
Codec ID/Info : UTF-8 Plain Text
Duration : 2 h 23 min
Bit rate : 45 b/s
Count of elements : 1897
Stream size : 47.9 KiB (0%)
Title : SDH
Language : English
Default : No
Forced : No

Text #6
ID : 11
Format : UTF-8
Codec ID : S_TEXT/UTF8
Codec ID/Info : UTF-8 Plain Text
Duration : 2 h 23 min
Bit rate : 64 b/s
Count of elements : 1898
Stream size : 68.3 KiB (0%)
Title : SDH Colored
Language : English
Default : No
Forced : No

Menu
00:00:00.000 : en:00:00:00.000
00:00:18.644 : en:00:00:18.644
00:01:45.731 : en:00:01:45.731
00:03:11.817 : en:00:03:11.817
00:07:43.296 : en:00:07:43.296
00:12:48.434 : en:00:12:48.434
00:13:44.574 : en:00:13:44.574
00:16:29.280 : en:00:16:29.280
00:19:59.281 : en:00:19:59.281
00:22:51.370 : en:00:22:51.370
00:26:04.980 : en:00:26:04.980
00:27:22.850 : en:00:27:22.850
00:31:24.758 : en:00:31:24.758
00:32:54.681 : en:00:32:54.681
00:35:27.667 : en:00:35:27.667
00:38:11.498 : en:00:38:11.498
00:41:53.428 : en:00:41:53.428
00:44:29.542 : en:00:44:29.542
00:46:51.475 : en:00:46:51.475
00:51:41.932 : en:00:51:41.932
00:53:50.060 : en:00:53:50.060
00:55:41.505 : en:00:55:41.505
00:57:39.581 : en:00:57:39.581
00:59:16.636 : en:00:59:16.636
01:02:05.847 : en:01:02:05.847
01:03:07.701 : en:01:03:07.701
01:05:41.729 : en:01:05:41.729
01:07:03.478 : en:01:07:03.478
01:10:25.721 : en:01:10:25.721
01:13:30.323 : en:01:13:30.323
01:17:43.450 : en:01:17:43.450
01:20:53.057 : en:01:20:53.057
01:24:17.970 : en:01:24:17.970
01:26:23.220 : en:01:26:23.220
01:27:59.524 : en:01:27:59.524
01:30:49.361 : en:01:30:49.361
01:32:54.569 : en:01:32:54.569
01:35:53.706 : en:01:35:53.706
01:37:10.616 : en:01:37:10.616
01:39:12.864 : en:01:39:12.864
01:42:07.663 : en:01:42:07.663
01:45:03.714 : en:01:45:03.714
01:49:35.694 : en:01:49:35.694
01:52:20.609 : en:01:52:20.609
01:56:04.749 : en:01:56:04.749
01:58:52.083 : en:01:58:52.083
02:03:11.134 : en:02:03:11.134
02:06:39.759 : en:02:06:39.759
02:11:43.604 : en:02:11:43.604
02:15:12.104 : en:02:15:12.104
02:20:16.700 : en:02:20:16.700
02:23:39.694 : en:02:23:39.694

pb.wtf



Скачать Звездные войны: Последние джедаи в 3Д через торрент http://i99.fastpic.ru/big/2018/0329/6f/af46f12b88e73ee88f39d3772590056f.png Скачать фильм Звездные войны: Последние джедаи в 3Д через торрент бесплантно в хорошем качестве Описание: Новая история о противостоянии света и тьмы, добра и зла начинается после гибели Хана Соло. В Галактике, где Первый Орден и ... 10 10 4
Торрент: Зарегистрирован [2018-03-30 23:11] · скачан: 100 раз
Статус: √ проверено
Размер: 20.67 GB
Как cкачать? Как скачать Звездные войны: Последние джедаи в 3Д через торрент | UTorrent

% Раздел Тема Автор DL S | L
3D Фильмы [ 26.38 GB ] Звездные войны: Последние джедаи в 3Д / Star Wars: Episode VIII - The Last Jedi 3D [2017 BDrip 1080p] [] OverUnder / Вертикальная стереопара serega768 Скачать
1 | 0

28-11-2019 20:33  

Отключить всю рекламу на сайте

    Дорогой пользователь! Огромная просьба, поблагодарите релизера, оцените раздачу и оставьте свои комментарий, если Вы скачали Звездные войны: Последние джедаи в 3Д через торрент бесплатно! Внесите свою лепту в развитие PiratBit!
    Комментировать посты могут только пользователи прошедшие не сложную регистрацию
    Показать сообщения:    

    Звездные войны: Последние джедаи в 3Д через торрент
    Скачать бесплатно Звездные войны: Последние джедаи в 3Д
    Звездные войны: Последние джедаи в 3Д скачать торрент
    Звездные войны: Последние джедаи в 3Д смотреть онлайн
    Cкачать фильм Звездные войны: Последние джедаи в 3Д бесплатно
    Звездные войны: Последние джедаи в 3Д скачать торрент в хорошем качестве
    Звездные войны: Последние джедаи в 3Д смотреть онлайн бесплатно в хорошем качестве


    Вы не можете начинать темы
    Вы не можете отвечать на сообщения
    Вы не можете редактировать свои сообщения
    Вы не можете удалять свои сообщения
    Вы не можете голосовать в опросах
    Вы не можете прикреплять файлы к сообщениям
    Вы можете скачивать файлы