Ссылка на приватное зеркало нашего сайта всего за 1$. Внимание количество ограничено!!!

2 сезон

iTunes

1 сезон

1

iTunes

iTunes

iTunes

1 сезон

RePack

30

ИГРА 18+

pack

ВАЖНО

!!Акция!!

Alien_RageХит недели

RePack

MK11
pack

Забери бонус

RePack

jed

!!Акция!!

Alien_Rage

RePack

fifa19

RePack

Assassins Creed: Odyssey

RePack

NEED FOR SPEED™ PAYBACK

4 сезон

9 сезон

Бесстыжие 9 сезон

Все сериалы

все сериалы на PB.wtf

RePack

FAR CRY 5
  

Реальные пацаны / Сезон: 10 / Серии: 1-16 из 16 (Жанна Кадникова) [2018, комедия, HDTVRip-AVC] pb.wtf

Реальные пацаны через торрент pb.wtf

Размер: 5.5 GB | Добавлен: 2 года 6 мес. назад | Торрент скачан:127 раз
Скачать  

31-03-2018 00:06 Реальные пацаны Скачать торрент  

Реальные пацаныГод выпуска: 2018
Страна: Россия
Жанр: комедия
Продолжительность: ~ 00:24:00
Субтитры: отсутствуют

Режиссер: Жанна Кадникова

В ролях:

Николай Наумов, Антон Богданов, Владимир Селиванов, Станислав Тляшев, Зоя Бербер, Марина Федункив, Мария Скорницкая, Валентина Мазунина

Описание:

Обычный, рядовой российский парень Коля не может определиться между жизнью «на районе» и миром пермской элиты общества. На протяжении всего сериала его ждут увлекательные и смешные истории.

Качество: HDTVRip-AVC
Формат: MKV

Видео: MPEG4 AVC Video, H264, 16:9, 1024x576, 25 fps, ~2000 kbps, 0.136 bit/pixel
Аудио: AC3 Dolby Digital, 48.0 kHz, 2/0 (L,R) ch, 192 kbps
скриншот  скриншот  скриншот  

General
Unique ID : 220511067667739915846290330812254004008 (0xA5E4E30739DB3D419A3EB5F0C1182328)
Complete name : D:\Realnye.pacany.s10.(2018).HDTVRip.(AVC).Files-x\01.Realnye.pacany.s10.(2018).HDTVRip.(AVC).by.Серый1779.Files-x.mkv
Format : Matroska
Format version : Version 2
File size : 373 MiB
Duration : 23mn 47s
Overall bit rate : 2 192 Kbps
Encoded date : UTC 2018-03-12 21:45:05
Writing application : mkvmerge v7.8.0 ('River Man') 32bit built on Apr 3 2015 12:11:22
Writing library : libebml v1.3.1 + libmatroska v1.4.2

Video
ID : 1
Format : AVC
Format/Info : Advanced Video Codec
Format profile : High@L4.1
Format settings, CABAC : Yes
Format settings, ReFrames : 9 frames
Codec ID : V_MPEG4/ISO/AVC
Duration : 23mn 47s
Bit rate : 2 000 Kbps
Width : 1 024 pixels
Height : 576 pixels
Display aspect ratio : 16:9
Frame rate mode : Constant
Frame rate : 25.000 fps
Color space : YUV
Chroma subsampling : 4:2:0
Bit depth : 8 bits
Scan type : Progressive
Bits/(Pixel*Frame) : 0.136
Stream size : 333 MiB (89%)
Writing library : x264 core 146 r2538 121396c
Encoding settings : cabac=1 / ref=9 / deblock=1:-2:-1 / analyse=0x3:0x133 / me=umh / subme=9 / psy=1 / psy_rd=1.00:0.15 / mixed_ref=1 / me_range=32 / chroma_me=1 / trellis=2 / 8x8dct=1 / cqm=0 / deadzone=21,11 / fast_pskip=0 / chroma_qp_offset=-3 / threads=18 / lookahead_threads=3 / sliced_threads=0 / nr=0 / decimate=1 / interlaced=0 / bluray_compat=0 / constrained_intra=0 / bframes=9 / b_pyramid=2 / b_adapt=2 / b_bias=0 / direct=1 / weightb=1 / open_gop=0 / weightp=2 / keyint=250 / keyint_min=25 / scenecut=40 / intra_refresh=0 / rc=2pass / mbtree=0 / bitrate=2000 / ratetol=1.0 / qcomp=0.60 / qpmin=0 / qpmax=69 / qpstep=4 / cplxblur=20.0 / qblur=0.5 / ip_ratio=1.40 / pb_ratio=1.30 / aq=2:1.00
Default : Yes
Forced : No
Color primaries : BT.709
Transfer characteristics : BT.709
Matrix coefficients : BT.709

Audio
ID : 2
Format : AC-3
Format/Info : Audio Coding 3
Mode extension : CM (complete main)
Format settings, Endianness : Big
Codec ID : A_AC3
Duration : 23mn 47s
Bit rate mode : Constant
Bit rate : 192 Kbps
Channel count : 2 channels
Channel positions : Front: L R
Sampling rate : 48.0 KHz
Bit depth : 16 bits
Compression mode : Lossy
Stream size : 32.7 MiB (9%)
Default : Yes
Forced : No

pb.wtf



Скачать Реальные пацаны через торрент http://i100.fastpic.ru/big/2018/0312/1d/a26a30d0e0e6855606e54254a9f2c51d.jpg Скачать фильм Реальные пацаны через торрент бесплантно в хорошем качестве Описание: Обычный, рядовой российский парень Коля не может определиться между жизнью «на районе» и миром пермской элиты общества. На ... 8.2 10 5
Торрент: Зарегистрирован [2018-03-31 00:06] · скачан: 127 раз
Статус: √ проверено
Размер: 5.5 GB
Как cкачать? Как скачать Реальные пацаны через торрент | qTorrent

% Раздел Тема Автор DL S | L
Наши сериалы [ 10.51 GB ] Реальные пацаны / Сезон: 10 / Серии: 1-16 из 16 [2018 HDTVRip 720p] bober100 Скачать
1 | 0
Наши сериалы [ 4.78 GB ] Реальные пацаны / Сезон: 10 / Серии: 1-16 из 16 [2018 WEBRip] bober100 Скачать
1 | 0
Наши сериалы [ 4.64 GB ] Реальные пацаны / Сезон: 10 / Серии: 1-16 из 16 [2018 SATRip] bober100 Скачать
1 | 0
Наши сериалы [ 20.06 GB ] Реальные пацаны / Сезон: 10 / Серии: 1-16 из 16 [2018 HDTV 1080i] bober100 Скачать
1 | 0
TNT serials [ 9.52 GB ] Реальные пацаны / Сезон: 10 / Серии: 1-16 из 16 [2018 WEBRip 720p] bober100 Скачать
1 | 0

28-11-2019 20:33  

Отключить всю рекламу на сайте

    Дорогой пользователь! Огромная просьба, поблагодарите релизера, оцените раздачу и оставьте свои комментарий, если Вы скачали Реальные пацаны через торрент бесплатно! Внесите свою лепту в развитие PiratBit!
    Комментировать посты могут только пользователи прошедшие не сложную регистрацию
    Показать сообщения:    

    Реальные пацаны через торрент
    Скачать бесплатно Реальные пацаны
    Реальные пацаны скачать торрент
    Реальные пацаны смотреть онлайн
    Cкачать фильм Реальные пацаны бесплатно
    Реальные пацаны скачать торрент в хорошем качестве
    Реальные пацаны смотреть онлайн бесплатно в хорошем качестве


    Вы не можете начинать темы
    Вы не можете отвечать на сообщения
    Вы не можете редактировать свои сообщения
    Вы не можете удалять свои сообщения
    Вы не можете голосовать в опросах
    Вы не можете прикреплять файлы к сообщениям
    Вы можете скачивать файлы