2 сезон

iTunes

1 сезон

1

iTunes

iTunes

iTunes

1 сезон

RePack

30

ИГРА 18+

pack

ВАЖНО

!!Акция!!

Alien_RageХит недели

RePack

MK11
pack

Забери бонус

RePack

jed

!!Акция!!

Alien_Rage

RePack

fifa19

RePack

Assassins Creed: Odyssey

RePack

NEED FOR SPEED™ PAYBACK

4 сезон

9 сезон

Бесстыжие 9 сезон

Все сериалы

все сериалы на PB.wtf

RePack

FAR CRY 5
  

Шуберт / Сезон: 1 / Серии: 1-10 из 10 (Евгений Бедарев) [2018, Детектив, триллер, HDTVRip] pb.wtf

Шуберт через торрент pb.wtf

Размер: 6.35 GB | Добавлен: 2 года 7 мес. назад | Торрент скачан:136 раз
Скачать  

31-03-2018 00:40 Шуберт Скачать торрент  

ШубертГод выпуска: 2018
Страна: Россия
Жанр: Детектив, триллер
Продолжительность: ~ 00:55:00
Субтитры: отсутствуют

Режиссер: Евгений Бедарев



В ролях:

Алексей Воробьёв, Александр Галибин, Павел Крайнов, Любовь Козий, Дмитрий Комов, Константин Самоуков, Алёна Коломина, Александра Богданова, Бесо Гатаев

Описание:

Александр Бертенёв (Шурка Бертенёв, или даже попросту Шуберт – для своих) – «слухач», «акустик», обладает потрясающей способностью различать звуки, вылавливать неслышные для обычных людей шумы. Однажды трагическая ошибка помешала ему стать полноправным сотрудником антитеррористического отдела. Теперь же другие трагические обстоятельства снова приводят его в спецслужбу. У Бертенёва убивают жену, потом переворачивают вверх дном его квартиру. А потом Шуберт выясняет, что у Ольги, которую он считал обычным психологом, была еще и тайная и опасная вторая жизнь. Кто и за что ее убили? Это главная загадка, которую разгадывает наш герой с помощью оставленных Ольгой звуковых шифров.

Качество: HDTVRip
Формат: AVI

Видео: 1530 Кбит/с, 720x304
Аудио: AC3, 2 ch, 192 Кбит/с
скриншот  скриншот  скриншот  

Общее
Полное имя : D:\Шуберт.2017.HDTVRip.Files-x\01.Шуберт.2017.HDTVRip.Files-x.avi
Формат : AVI
Формат/Информация : Audio Video Interleave
Размер файла : 650 Мбайт
Продолжительность : 53 м. 11 с.
Общий поток : 1709 Кбит/сек
Программа кодирования : VirtualDubMod 1.5.10.3 | www.virtualdub-fr.org || (build 2550/release)
Библиотека кодирования : VirtualDubMod build 2550/release

Видео
Идентификатор : 0
Формат : MPEG-4 Visual
Профиль формата : Advanced Simple@L5
Параметр BVOP формата : 1
Параметр QPel формата : Нет
Параметр GMC формата : Без точки перехода
Параметр матрицы формата : Выборочная
Идентификатор кодека : XVID
Идентификатор кодека/Подсказка : XviD
Продолжительность : 53 м. 11 с.
Битрейт : 1508 Кбит/сек
Ширина : 720 пикселей
Высота : 304 пикселя
Соотношение сторон : 2,35:1
Частота кадров : 25,000 кадров/сек
Цветовое пространство : YUV
Субдискретизация насыщенности : 4:2:0
Битовая глубина : 8 бит
Тип развёртки : Прогрессивная
Метод сжатия : С потерями
Бит/(Пиксели*Кадры) : 0.276
Размер потока : 574 Мбайт (88%)
Библиотека кодирования : XviD 73

Аудио
Идентификатор : 1
Формат : AC-3
Формат/Информация : Audio Coding 3
Расширение режима : CM (complete main)
Параметр Endianness формата : Big
Идентификатор кодека : 2000
Продолжительность : 53 м. 11 с.
Вид битрейта : Постоянный
Битрейт : 192 Кбит/сек
Каналы : 2 канала
Расположение каналов : Front: L R
Частота : 48,0 КГц
Частота кадров : 31,250 кадров/сек (1536 spf)
Метод сжатия : С потерями
Размер потока : 73,1 Мбайт (11%)
Выравнивание : Разделение по промежуткам
Продолжительность промежутка : 40 мс. (1,00 видеокадр)
Время предзагрузки промежутка : 500 мс.

pb.wtf



Скачать Шуберт через торрент https://c.radikal.ru/c38/1803/50/21ceb56a62cf.jpg Скачать фильм Шуберт через торрент бесплантно в хорошем качестве Описание: Александр Бертенёв (Шурка Бертенёв, или даже попросту Шуберт – для своих) – «слухач», «акустик», обладает потрясающей ... 9.6 10 7
Торрент: Зарегистрирован [2018-03-31 00:40] · скачан: 136 раз
Статус: √ проверено
Размер: 6.35 GB
Как cкачать? Как скачать Шуберт через торрент | qTorrent

% Раздел Тема Автор DL S | L
Наши сериалы [ 22.47 GB ] Шуберт / Сезон: 1 / Серии: 1-10 из 10 [2018 WEB-DL 1080p] bober100 Скачать
1 | 0
Наши сериалы [ 7.94 GB ] Шуберт / Сезон: 1 / Серии: 1-10 из 10 [2018 HDTVRip-AVC] bober100 Скачать
1 | 1
Наши сериалы [ 24.94 GB ] Шуберт / Сезон: 1 / Серии: 1-10 из 10 [2018 HDTV 1080p] [Русский] R.G.Generalfilm White Smoke Скачать
1 | 0

28-11-2019 20:33  

Отключить всю рекламу на сайте

31-03-2018 01:47 Шуберт Скачать торрент  

Нюхач слухач что дальше ловкач силач ..pb.wtf



05-04-2018 05:31 Шуберт Скачать торрент  

буде ще піхач і сосач московія не має що знімати сходить з розуму pb.wtf



    Дорогой пользователь! Огромная просьба, поблагодарите релизера, оцените раздачу и оставьте свои комментарий, если Вы скачали Шуберт через торрент бесплатно! Внесите свою лепту в развитие PiratBit!
    Комментировать посты могут только пользователи прошедшие не сложную регистрацию
    Показать сообщения:    

    Шуберт через торрент
    Скачать бесплатно Шуберт
    Шуберт скачать торрент
    Шуберт смотреть онлайн
    Cкачать фильм Шуберт бесплатно
    Шуберт скачать торрент в хорошем качестве
    Шуберт смотреть онлайн бесплатно в хорошем качестве


    Вы не можете начинать темы
    Вы не можете отвечать на сообщения
    Вы не можете редактировать свои сообщения
    Вы не можете удалять свои сообщения
    Вы не можете голосовать в опросах
    Вы не можете прикреплять файлы к сообщениям
    Вы можете скачивать файлы