Ссылка на приватное зеркало нашего сайта всего за 1$. Внимание количество ограничено!!!

2 сезон

iTunes

1 сезон

1

2 сезон

2 сезон

iTunes

1 сезон

RePack

30

Новинка

ВАЖНО

ИГРА 18+

pack

RePack

MK11
pack

Забери бонус

RePack

jed

!!Акция!!

Alien_Rage

RePack

fifa19

RePack

Assassins Creed: Odyssey

RePack

NEED FOR SPEED™ PAYBACK

4 сезон

9 сезон

Бесстыжие 9 сезон

Все сериалы

все сериалы на PB.wtf

RePack

FAR CRY 5
  

Вне времени / Timeless / Сезон: 2 / Серии: 1-12 из 12 (Нил Маршалл) [2018, Фантастика, боевик, драма, приключения, WEB-DLRip] MVO [Jaskier] pb.wtf

Вне времени через торрент pb.wtf

Размер: 5.86 GB | Добавлен: 1 год 11 мес. назад | Торрент скачан:30 раз
Скачать  

31-03-2018 05:18 Вне времени Скачать торрент  

Вне времени / Timeless
Информация о фильме:

✦ Название: Вне времени
✦ Оригинальное название: Timeless
✦ Год выпуска: 2018
✦ Страна: США
✦ Жанр: Фантастика, боевик, драма, приключения
✦ Продолжительность: ~ 00:45:00 серия
✦ Перевод: Профессиональный многоголосый | Jaskier
✦ Субтитры: английские

✦ Режиссер: Нил Маршалл

rating

В ролях:

Клаудия Дурмит, Мэтт Фрюэр, Джордан Гардинер, Брекен Ханке, Сакина Джэффри, Хиро Канагава, Тревор Лернер

Описание:

Сюжет повествует о команде из трёх человек, путешествующих по времени в поисках могущественного гада, который вознамерился переписать историю человечества. Если трио не успеет сработаться и сорвать преступный план, миру, естественно, грозит катастрофа.

Информация о файле:

✦ Качество: WEB-DLRip
✦ Формат: AVI

✦ Видео: ~ 1400 kbps, 720x400, 23.976 fps
✦ Аудио#1 Rus: mp3, 48.0 KHz, 2 ch, 128 kbps
✦ Аудио#2 Eng: mp3, 48.0 KHz, 2 ch, 128 kbps


скриншот   скриншот   скриншот  

Общее
Полное имя : D:\Timeless. Season 2 (WEB-DLRip l 400p l Jaskier)\Timeless.S02E01.WEB-DLRip.Rus.Eng.Jaskier.avi
Формат : AVI
Формат/Информация : Audio Video Interleave
Размер файла : 501 Мбайт
Продолжительность : 42 м. 29 с.
Общий поток : 1647 Кбит/сек
Программа кодирования : VirtualDubMod 1.5.10.3 | www.virtualdub-fr.org || (build 2550/release)
Библиотека кодирования : VirtualDubMod build 2550/release

Видео
Идентификатор : 0
Формат : MPEG-4 Visual
Профиль формата : Advanced Simple@L5
Параметр BVOP формата : 1
Параметр QPel формата : Нет
Параметр GMC формата : Без точки перехода
Параметр матрицы формата : Default (MPEG)
Идентификатор кодека : XVID
Идентификатор кодека/Подсказка : XviD
Продолжительность : 42 м. 29 с.
Битрейт : 1377 Кбит/сек
Ширина : 720 пикселей
Высота : 400 пикселей
Соотношение сторон : 16:9
Частота кадров : 23,976 (23976/1000) кадра/сек
Цветовое пространство : YUV
Субдискретизация насыщенности : 4:2:0
Битовая глубина : 8 бит
Тип развёртки : Прогрессивная
Метод сжатия : С потерями
Бит/(Пиксели*Кадры) : 0.199
Размер потока : 418 Мбайт (84%)
Библиотека кодирования : XviD 73

Аудио #1
Идентификатор : 1
Формат : MPEG Audio
Версия формата : Version 1
Профиль формата : Layer 3
Режим : Joint stereo
Расширение режима : MS Stereo
Идентификатор кодека : 55
Идентификатор кодека/Подсказка : MP3
Продолжительность : 42 м. 29 с.
Вид битрейта : Постоянный
Битрейт : 128 Кбит/сек
Каналы : 2 канала
Частота : 48,0 КГц
Метод сжатия : С потерями
Размер потока : 38,9 Мбайт (8%)
Выравнивание : Соединение по промежуткам
Продолжительность промежутка : 42 мс. (1,00 видеокадр)
Время предзагрузки промежутка : 504 мс.

Аудио #2
Идентификатор : 2
Формат : MPEG Audio
Версия формата : Version 1
Профиль формата : Layer 3
Режим : Joint stereo
Расширение режима : MS Stereo
Идентификатор кодека : 55
Идентификатор кодека/Подсказка : MP3
Продолжительность : 42 м. 29 с.
Вид битрейта : Постоянный
Битрейт : 128 Кбит/сек
Каналы : 2 канала
Частота : 48,0 КГц
Метод сжатия : С потерями
Размер потока : 38,9 Мбайт (8%)
Выравнивание : Соединение по промежуткам
Продолжительность промежутка : 42 мс. (1,00 видеокадр)
Время предзагрузки промежутка : 504 мс.

Когда раздача ведётся путём добавления новых серий, при каждом добавлении создётся новый торрент. Чтобы начать докачку новой серии, пользователям необходимо сделать следующее:
(1) остановить скачивание,
(2) удалить старый торрент у себя из клиента (старые серии удалять не надо),
(3) скачать новый торрент и запустить его у себя в клиенте вместо старого, при этом указать клиенту путь в старую папку, куда и должно происходить скачивание новых серий.
Ваш клиент при этом должен произвести хеширование (проверку) старой папки (если не производит сам - помогите ему сделать это), и будет докачивать только те серии, которых у вас ещё нет. Старые серии при этом не удаляются, а продолжают раздаваться!
Eсли вы уже удалили старые серии, то предотвратить повторную закачку старых серий можно, отжав галочку в соответсвующих местах при запуске нового торрента. По возможности, желательно не удалять старые серии как можно дольше, чтобы релизёр не столько продолжал раздавать старые серии, а смог сконцентрироваться на новых.
pb.wtf



Скачать Вне времени через торрент http://pic1.kartinco.top/images/11/irx98.jpg Скачать фильм Вне времени через торрент бесплантно в хорошем качестве Описание: Сюжет повествует о команде из трёх человек, путешествующих по времени в поисках могущественного гада, который вознамерился ... 8.2 10 5
Торрент: Зарегистрирован [2018-12-29 04:28] · скачан: 30 раз
Статус: √ проверено
Размер: 5.86 GB
Как cкачать? Как скачать Вне времени через торрент | qTorrent

% Раздел Тема Автор DL S | L
Зарубежные сериалы [ 30.84 GB ] Вне времени / Timeless / Сезон: 2 / Серии: 1-12 из 12 [2018 WEB-DL 1080p] MVO [LostFilm] bober100 Скачать
1 | 0
Зарубежные сериалы [ 6.37 GB ] Вне времени / Timeless / Сезон: 2 / Серии: 1-12 из 12 [2018 WEB-DLRip] MVO [LostFilm] bober100 Скачать
1 | 0
Зарубежные сериалы [ 11.07 GB ] Вне времени / Timeless / Сезон: 2 / Серии: 1-12 из 12 [2018 WEB-DL 720p] MVO [Jaskier] bober100 Скачать
1 | 0
Зарубежные сериалы [ 28.99 GB ] Вне времени / Timeless / Сезон: 2 / Серии: 1-12 из 12 [2018 WEB-DL 1080p] MVO [Jaskier] bober100 Скачать
1 | 0
Зарубежные сериалы [ 6.32 GB ] Вне времени / Timeless / Сезон: 2 / Серии: 1-12 из 12 [2018 WEBRip] killermax2013 Скачать
1 | 0

28-11-2019 20:33  

Отключить всю рекламу на сайте

    Дорогой пользователь! Огромная просьба, поблагодарите релизера, оцените раздачу и оставьте свои комментарий, если Вы скачали Вне времени через торрент бесплатно! Внесите свою лепту в развитие PiratBit!
    Комментировать посты могут только пользователи прошедшие не сложную регистрацию
    Показать сообщения:    

    Вне времени через торрент
    Скачать бесплатно Вне времени
    Вне времени скачать торрент
    Вне времени смотреть онлайн
    Cкачать фильм Вне времени бесплатно
    Вне времени скачать торрент в хорошем качестве
    Вне времени смотреть онлайн бесплатно в хорошем качестве


    Вы не можете начинать темы
    Вы не можете отвечать на сообщения
    Вы не можете редактировать свои сообщения
    Вы не можете удалять свои сообщения
    Вы не можете голосовать в опросах
    Вы не можете прикреплять файлы к сообщениям
    Вы можете скачивать файлы