Ссылка на приватное зеркало нашего сайта всего за 1$. Внимание количество ограничено!!!

2 сезон

iTunes

1 сезон

1

2 сезон

2 сезон

iTunes

1 сезон

RePack

30

Ultimate

ВАЖНО

ИГРА 18+

pack

RePack

MK11
pack

Забери бонус

RePack

jed

!!Акция!!

Alien_Rage

RePack

fifa19

RePack

Assassins Creed: Odyssey

RePack

NEED FOR SPEED™ PAYBACK

4 сезон

9 сезон

Бесстыжие 9 сезон

Все сериалы

все сериалы на PB.wtf

RePack

FAR CRY 5
  

Лемони Сникет: 33 несчастья / A Series of Unfortunate Events / Сезон: 2 / Серии: 1-10 из 10 (Бэрри Зонненфельд, Марк Палански, Бо Уэлш) [2018, Драма, приключения, WEBRip] MVO [ColdFilm] pb.wtf

Лемони Сникет: 33 несчастья через торрент pb.wtf

Размер: 4.16 GB | Добавлен: 2 года 7 мес. назад | Торрент скачан:19 раз
Скачать  

31-03-2018 06:54 Лемони Сникет: 33 несчастья Скачать торрент  

Лемони Сникет: 33 несчастья / A Series of Unfortunate EventsГод выпуска: 2018
Страна: США
Жанр: Драма, приключения
Продолжительность: ~00:50:00
Перевод: Любительский (многоголосый) |
Субтитры: отсутствуют

Режиссер: Бэрри Зонненфельд, Марк Палански, Бо Уэлш

rating

В ролях:

Нил Патрик Харрис, Усман Элли, Мэттью Кардаропле, Джон ДеСантис, Луи Хайнс, Малина Вайсман, Сара Каннинг, Патрик Китинг, Кэтрин О`Хара, Элфри Вудард

Описание:

Трое детей семьи Бодлер — Вайолет, Клаус и Солнышко — после страшного пожара остаются сиротами и оказываются на попечении графа Олафа, который всеми силами хочет захватить наследство детей. Дети всячески пытаются объяснить всем вокруг, что граф Олаф не просто плохой опекун, но и ещё пытается убить их, чтобы разбогатеть; разумеется, никто детей не слушает. И только из-за непонимания взрослых сироты попадают в разные злоключения.

Качество: WEBRip
Формат: AVI

Видео: 1200 Кбит/с, 720x360, 25.000 fps
Аудио: Русский (MP3, 2 ch, 192 Кбит/с)
скриншот   скриншот   скриншот   скриншот  

Общее
Полное имя : D:\Lemony.Snickets.A.Series.of.Unfortunate.Events.S02.400p.ColdFilm\Lemony.Snickets.A.Series.of.Unfortunate.Events.S02E01.400p.ColdFilm.avi
Формат : AVI
Формат/Информация : Audio Video Interleave
Размер файла : 418 Мбайт
Продолжительность : 46 м. 50 с.
Общий поток : 1246 Кбит/сек
Программа кодирования : Lavf57.40.101

Видео
Идентификатор : 1
Формат : MPEG-4 Visual
Профиль формата : Advanced Simple@L1
Параметр BVOP формата : Нет
Параметр QPel формата : Нет
Параметр GMC формата : Без точки перехода
Параметр матрицы формата : Default (H.263)
Идентификатор кодека : FMP4
Продолжительность : 46 м. 50 с.
Битрейт : 1087 Кбит/сек
Ширина : 720 пикселей
Высота : 360 пикселей
Соотношение сторон : 2,000
Режим частоты кадров : Переменный
Частота кадров : 119,880 (24/30) кадров/сек
Минимальная частота кадров : 23,976 кадра/сек
Максимальная частота кадров : 29,970 кадров/сек
Цветовое пространство : YUV
Субдискретизация насыщенности : 4:2:0
Битовая глубина : 8 бит
Тип развёртки : Прогрессивная
Метод сжатия : С потерями
Бит/(Пиксели*Кадры) : 0.035
Размер потока : 364 Мбайт (87%)
Библиотека кодирования : Lavc57.48.101

Аудио
Идентификатор : 0
Формат : MPEG Audio
Версия формата : Version 1
Профиль формата : Layer 3
Режим : Joint stereo
Расширение режима : MS Stereo
Идентификатор кодека : 55
Идентификатор кодека/Подсказка : MP3
Продолжительность : 46 м. 50 с.
Вид битрейта : Постоянный
Битрейт : 128 Кбит/сек
Каналы : 2 канала
Частота : 48,0 КГц
Метод сжатия : С потерями
Размер потока : 42,9 Мбайт (10%)
Выравнивание : Соединение по промежуткам
Продолжительность промежутка : 8 мс. (1,00 видеокадр)

pb.wtf



Скачать Лемони Сникет: 33 несчастья через торрент http://i101.fastpic.ru/big/2018/0331/8b/3c0f3d36daa0a5ef0f8826581705788b.jpg Скачать фильм Лемони Сникет: 33 несчастья через торрент бесплантно в хорошем качестве Описание: Трое детей семьи Бодлер — Вайолет, Клаус и Солнышко — после страшного пожара остаются сиротами и оказываются на попечении графа ... 10 10 3
Торрент: Зарегистрирован [2018-03-31 06:54] · скачан: 19 раз
Статус: √ проверено
Размер: 4.16 GB
Как cкачать? Как скачать Лемони Сникет: 33 несчастья через торрент | qTorrent

% Раздел Тема Автор DL S | L
Зарубежные сериалы [ 27.83 GB ] Лемони Сникет: 33 несчастья / A Series of Unfortunate Events / Сезон: 2 / Серия: 1-7 из 7 [2019 WEBRip 1080p] [MVO] killermax2013 Скачать
1 | 0
Зарубежные сериалы [ 5.41 GB ] Лемони Сникет: 33 несчастья / A Series of Unfortunate Events / Сезон: 2 / Серия: 1-10 из 10 [2018 WEBRip] [MVO] killermax2013 Скачать
1 | 0
Зарубежные сериалы [ 15.38 GB ] Лемони Сникет: 33 несчастья / A Series of Unfortunate Events / Сезон: 2 / Серия: 1-10 из 10 [2018 WEBRip 1080p] [MVO] killermax2013 Скачать
1 | 0
Зарубежные сериалы [ 8.91 GB ] Лемони Сникет: 33 несчастья / A Series of Unfortunate Events / Сезон: 2 / Серия: 1-10 из 10 [2018 WEBRip 1080p] [MVO] killermax2013 Скачать
1 | 0
Зарубежные сериалы [ 9.55 GB ] Лемони Сникет: 33 несчастья / A Series of Unfortunate Events / Сезон: 2 / Серии 1-10 из 10 [2018 WEBRip 720p] [MVO] killermax2013 Скачать
1 | 0
Зарубежные сериалы [ 16.6 GB ] Лемони Сникет: 33 несчастья / A Series of Unfortunate Events / Сезон: 2 / Серии: 1-10 из 10 [2018 WEBRip 1080p] MVO [Good People] bober100 Скачать
1 | 0
Зарубежные сериалы [ 5.84 GB ] Лемони Сникет: 33 несчастья / A Series of Unfortunate Events / Сезон: 2 / Серии: 1-10 из 10 [2018 WEBRip] MVO [Good People] bober100 Скачать
1 | 0

28-11-2019 20:33  

Отключить всю рекламу на сайте

31-03-2018 07:13 Лемони Сникет: 33 несчастья Скачать торрент  

первый сезон еле досмотрел на автопилоте сняли С появлением проф озвучки возможно гляну что они тут наваялиpb.wtf



    Дорогой пользователь! Огромная просьба, поблагодарите релизера, оцените раздачу и оставьте свои комментарий, если Вы скачали Лемони Сникет: 33 несчастья через торрент бесплатно! Внесите свою лепту в развитие PiratBit!
    Комментировать посты могут только пользователи прошедшие не сложную регистрацию
    Показать сообщения:    

    Лемони Сникет: 33 несчастья через торрент
    Скачать бесплатно Лемони Сникет: 33 несчастья
    Лемони Сникет: 33 несчастья скачать торрент
    Лемони Сникет: 33 несчастья смотреть онлайн
    Cкачать фильм Лемони Сникет: 33 несчастья бесплатно
    Лемони Сникет: 33 несчастья скачать торрент в хорошем качестве
    Лемони Сникет: 33 несчастья смотреть онлайн бесплатно в хорошем качестве


    Вы не можете начинать темы
    Вы не можете отвечать на сообщения
    Вы не можете редактировать свои сообщения
    Вы не можете удалять свои сообщения
    Вы не можете голосовать в опросах
    Вы не можете прикреплять файлы к сообщениям
    Вы можете скачивать файлы