2 сезон

iTunes

MVO

1

2 сезон

iTunes

1 сезон

1 сезон

RePack

30

Новинка

ВАЖНО

ИГРА 18+

pack

RePack

MK11
pack

Легкие деньги

RePack

jed

RePack

fifa19

RePack

RDR2

RePack

NEED FOR SPEED™ PAYBACK

4 сезон

9 сезон

Бесстыжие 9 сезон

Все сериалы

все сериалы на PB.wtf

RePack

FAR CRY 5

Anonymous, добрый вечер, мы не успеваем собрать деньги на оплату серверов за декабрь и январь, помогите нам пожалуйста в это трудное время. В качестве благодарности мы отключим Вам всю рекламу на сайте (укажите свой ник в строку Ваше имя)!

×
  
Magnet ссылка

Джуманджи: Зов джунглей в 3Д / Jumanji: Welcome to the Jungle 3D (Джейк Кэздан) [2017, фэнтези, боевик, комедия, приключения, семейный, BDRip 1080p] DUB (rus, ukr) [iTunes] [Half OverUnder / Вертикальная анаморфная стереопара] pb.wtf

Джуманджи: Зов джунглей в 3Д через торрент pb.wtf

Размер: 11.02 GB | Добавлен: 2 года 9 мес. назад | Торрент скачан:193 раза
Скачать  

31-03-2018 08:02 Джуманджи: Зов джунглей в 3Д Скачать торрент  


Джуманджи: Зов джунглей в 3Д / Jumanji: Welcome to the Jungle 3D«Осторожно, засосёт»
Год выпуска: 2017
Страна: США
Жанр: фэнтези, боевик, комедия, приключения, семейный
Продолжительность: 01:59:03
Перевод: Дублированный | iTunes
Субтитры:

Вшитые (softsub):
#1 - Русские Форсированные (включены по умолчанию)
#2 - Русские Полные
#3 - Украинские Форсированные
#4 - Украинские Полные
#5 - English Full
#6 - English SDH

Внешние (UTF-8):
#1 - Русские Форсированные (включены по умолчанию)
#2 - Русские Полные
#3 - Украинские Форсированные

Режиссер: Джейк Кэздан

rating

В ролях:

Дуэйн Джонсон, Кевин Харт, Джек Блэк, Карен Гиллан, Риз Дэрби, Бобби Каннавале, Ник Джонас, Алекс Вулф, Сер Дариус Блэйн, Мэдисон Исман

Описание:

Четверо подростков оказываются внутри игры «Джуманджи». Их ждет схватка с носорогами, черными мамбами, а на каждом шагу будет подстерегать бесконечная череда ловушек и головоломок. Чтобы пройти игру и остаться в живых, им придется перевоплотиться в персонажей игры: робкий и застенчивый Спенсер превращается в отважного и сильного исследователя, здоровяк Фридж - в коротышку, модница и красавица Беттани - в профессора, а неуклюжая и нескладная Марта становится бесстрашной и ловкой амазонкой. Друзьям придется привыкнуть к совершенно новым и таким непривычным для себя ролям и найти дорогу домой.

Качество: BDRip 1080p
Формат: MKV

Видео: AVC / 1920х1080p / 23,976 fps / 17.0 Mbps
Аудио#1: 48 kHz, AC3, 5.1, 384 Kbps | Дублированный | iTunes | RUS |
Аудио#2: 48 kHz, AC3, 2.0, 224 Kbps | Дублированный | iTunes UKR|
Аудио#3: 48 kHz, AC3, 5.1, 640 Kbps | Оригинал | ENG |


Формат 3D: Half OverUnder / Вертикальная анаморфная стереопара
Порядок ракурсов: левый ракурс первый
скриншот   скриншот   скриншот   скриншот   скриншот   скриншот  

General
Unique ID : 190746473419033783779611540267383159317 (0x8F806F3B065E2D2892AC52AA14E47A15)
Complete name : D:Jumanji2(2017)3D-halfOU(Ash61)iTunesJumanji2(2017)3D-halfOU(Ash61)iTunes.mkv
Format : Matroska
Format version : Version 2
File size : 11.0 GiB
Duration : 1h 59mn
Overall bit rate : 13.2 Mbps
Movie name : Джуманджи: Зов джунглей / Jumanji: Welcome to the Jungle (2017) in 3D
Encoded date : UTC 2018-03-31 05:44:10
Writing application : mkvmerge v5.8.0 ('No Sleep / Pillow') built on Sep 2 2012 15:37:04
Writing library : libebml v1.2.3 + libmatroska v1.3.0

Video
ID : 1
Format : AVC
Format/Info : Advanced Video Codec
Format profile : High@L4.1
Format settings, CABAC : Yes
Format settings, ReFrames : 4 frames
Codec ID : V_MPEG4/ISO/AVC
Duration : 1h 59mn
Bit rate : 12.0 Mbps
Width : 1 920 pixels
Height : 1 080 pixels
Display aspect ratio : 16:9
Frame rate mode : Constant
Frame rate : 23.976 (24000/1001) fps
Color space : YUV
Chroma subsampling : 4:2:0
Bit depth : 8 bits
Scan type : Progressive
Bits/(Pixel*Frame) : 0.241
Stream size : 9.76 GiB (89%)
Title : BDRip by Ash61
Writing library : x264 core 146 r2538 121396c
Encoding settings : cabac=1 / ref=4 / deblock=1:-3:-3 / analyse=0x3:0x113 / me=umh / subme=10 / psy=1 / psy_rd=1.00:0.00 / mixed_ref=1 / me_range=32 / chroma_me=1 / trellis=2 / 8x8dct=1 / cqm=0 / deadzone=21,11 / fast_pskip=0 / chroma_qp_offset=-2 / threads=12 / lookahead_threads=3 / sliced_threads=0 / nr=0 / decimate=0 / interlaced=0 / bluray_compat=0 / constrained_intra=0 / bframes=11 / b_pyramid=2 / b_adapt=2 / b_bias=0 / direct=3 / weightb=1 / open_gop=0 / weightp=2 / keyint=250 / keyint_min=23 / scenecut=40 / intra_refresh=0 / rc_lookahead=60 / rc=2pass / mbtree=0 / bitrate=12000 / ratetol=1.0 / qcomp=0.70 / qpmin=0 / qpmax=69 / qpstep=4 / cplxblur=20.0 / qblur=0.5 / vbv_maxrate=40000 / vbv_bufsize=30000 / nal_hrd=none / filler=0 / frame-packing=4 / ip_ratio=1.40 / pb_ratio=1.30 / aq=1:0.70
Language : English
Default : Yes
Forced : No

Audio #1
ID : 2
Format : AC-3
Format/Info : Audio Coding 3
Mode extension : CM (complete main)
Format settings, Endianness : Big
Codec ID : A_AC3
Duration : 1h 59mn
Bit rate mode : Constant
Bit rate : 384 Kbps
Channel(s) : 6 channels
Channel positions : Front: L C R, Side: L R, LFE
Sampling rate : 48.0 KHz
Frame rate : 31.250 fps (1536 spf)
Compression mode : Lossy
Stream size : 327 MiB (3%)
Title : Дубляж - iTunes
Language : Russian
Default : Yes
Forced : No

Audio #2
ID : 3
Format : AC-3
Format/Info : Audio Coding 3
Mode extension : CM (complete main)
Format settings, Endianness : Big
Codec ID : A_AC3
Duration : 1h 59mn
Bit rate mode : Constant
Bit rate : 224 Kbps
Channel(s) : 2 channels
Channel positions : Front: L R
Sampling rate : 48.0 KHz
Frame rate : 31.250 fps (1536 spf)
Compression mode : Lossy
Stream size : 191 MiB (2%)
Title : Дубляж - iTunes
Language : Ukrainian
Default : No
Forced : No

Audio #3
ID : 4
Format : AC-3
Format/Info : Audio Coding 3
Mode extension : CM (complete main)
Format settings, Endianness : Big
Codec ID : A_AC3
Duration : 1h 59mn
Bit rate mode : Constant
Bit rate : 640 Kbps
Channel(s) : 6 channels
Channel positions : Front: L C R, Side: L R, LFE
Sampling rate : 48.0 KHz
Frame rate : 31.250 fps (1536 spf)
Compression mode : Lossy
Stream size : 545 MiB (5%)
Title : Original - BD 3D
Language : English
Default : No
Forced : No

Text #1
ID : 5
Format : UTF-8
Codec ID : S_TEXT/UTF8
Codec ID/Info : UTF-8 Plain Text
Title : Форсированные (расширенные)
Language : Russian
Default : Yes
Forced : No

Text #2
ID : 6
Format : UTF-8
Codec ID : S_TEXT/UTF8
Codec ID/Info : UTF-8 Plain Text
Title : Полные
Language : Russian
Default : No
Forced : No

Text #3
ID : 7
Format : UTF-8
Codec ID : S_TEXT/UTF8
Codec ID/Info : UTF-8 Plain Text
Title : Форсированные
Language : Ukrainian
Default : No
Forced : No

Text #4
ID : 8
Format : UTF-8
Codec ID : S_TEXT/UTF8
Codec ID/Info : UTF-8 Plain Text
Title : Полные
Language : Ukrainian
Default : No
Forced : No

Text #5
ID : 9
Format : UTF-8
Codec ID : S_TEXT/UTF8
Codec ID/Info : UTF-8 Plain Text
Title : Full
Language : English
Default : No
Forced : No

Text #6
ID : 10
Format : UTF-8
Codec ID : S_TEXT/UTF8
Codec ID/Info : UTF-8 Plain Text
Title : SDH
Language : English
Default : No
Forced : No

Menu
00:00:00.000 : :1
00:07:18.104 : :2
00:17:15.993 : :3
00:23:23.235 : :4
00:29:24.972 : :5
00:42:28.546 : :6
00:47:11.162 : :7
00:54:26.722 : :8
01:03:20.839 : :9
01:10:21.801 : :10
01:15:51.672 : :11
01:24:10.087 : :12
01:28:20.295 : :13
01:33:48.414 : :14
01:42:22.887 : :15
01:48:31.839 : :16

pb.wtf



Скачать Джуманджи: Зов джунглей в 3Д через торрент http://i103.fastpic.ru/big/2018/0330/4a/f4b8bce3cc7d09add1884f0a3eeea64a.png Скачать фильм Джуманджи: Зов джунглей в 3Д через торрент бесплантно в хорошем качестве Описание: Четверо подростков оказываются внутри игры «Джуманджи». Их ждет схватка с носорогами, черными мамбами, а на каждом шагу будет ... 10 10 6
Info! Золотая раздача, скачанное не засчитывается.
Торрент: Зарегистрирован [2018-03-31 08:02] · скачан: 193 раз
Статус: √ проверено
Размер: 11.02 GB
Как cкачать? Как скачать Джуманджи: Зов джунглей в 3Д через торрент | UTorrent

% Раздел Тема Автор DL S | L
3D Фильмы [ 15.11 GB ] Джуманджи: Зов джунглей в 3Д / Jumanji: Welcome to the Jungle 3D [2017 BDRip 1080p] DUB [] [Anamorph SideBySide / Горизонтальная анаморфная стереопара] bober100 Скачать
1 | 0
3D Фильмы [ 16.32 GB ] Джуманджи: Зов джунглей в 3Д / Jumanji: Welcome to the Jungle 3D [2017 BDrip 1080p] [лицензия] OverUnder / Вертикальная стереопара serega768 Скачать
1 | 0

28-11-2019 20:33  

Отключить всю рекламу на сайте

    Дорогой пользователь! Огромная просьба, поблагодарите релизера, оцените раздачу и оставьте свои комментарий, если Вы скачали Джуманджи: Зов джунглей в 3Д через торрент бесплатно! Внесите свою лепту в развитие PiratBit!
    Комментировать посты могут только пользователи прошедшие не сложную регистрацию
    Показать сообщения:    

    Джуманджи: Зов джунглей в 3Д через торрент
    Скачать бесплатно Джуманджи: Зов джунглей в 3Д
    Джуманджи: Зов джунглей в 3Д скачать торрент
    Джуманджи: Зов джунглей в 3Д смотреть онлайн
    Cкачать фильм Джуманджи: Зов джунглей в 3Д бесплатно
    Джуманджи: Зов джунглей в 3Д скачать торрент в хорошем качестве
    Джуманджи: Зов джунглей в 3Д смотреть онлайн бесплатно в хорошем качестве


    Вы не можете начинать темы
    Вы не можете отвечать на сообщения
    Вы не можете редактировать свои сообщения
    Вы не можете удалять свои сообщения
    Вы не можете голосовать в опросах
    Вы не можете прикреплять файлы к сообщениям
    Вы можете скачивать файлы