2 сезон

iTunes

1 сезон

1

iTunes

iTunes

iTunes

1 сезон

RePack

30

ИГРА 18+

pack

ВАЖНО

!!Акция!!

Alien_RageХит недели

RePack

MK11
pack

Забери бонус

RePack

jed

!!Акция!!

Alien_Rage

RePack

fifa19

RePack

Assassins Creed: Odyssey

RePack

NEED FOR SPEED™ PAYBACK

4 сезон

9 сезон

Бесстыжие 9 сезон

Все сериалы

все сериалы на PB.wtf

RePack

FAR CRY 5
  

Доктор Котов / (Серия 1-4 из 4) / (Ашот Кещян) [2018 г., Мелодрама, SATRip] pb.wtf

Доктор Котов через торрент pb.wtf

Размер: 2.58 GB | Добавлен: 2 года 6 мес. назад | Торрент скачан:43 раза
Скачать  

31-03-2018 09:42 Доктор Котов Скачать торрент  

Доктор Котов / (Серия 1-4 из 4) /
Год выпуска: 2018
Страна: Россия
Жанр: Мелодрама
Продолжительность: 4 х 00:46:00
Субтитры: Нет

Режиссер: Ашот Кещян

В ролях: Иван Оганесян, Светлана Антонова, Дмитрий Мазуров, Виолетта Давыдовская, Любовь Зайцева, Илья Бледный, Нодар Джанелидзе, Сергей Пиоро, Виктория Лукина, Людмила Гаврилова, Андрей Капустин

Описание: Накануне свадьбы Риты Полуниной и Павла Захаркина в аварию попадает сестра невесты, Светлана. Чтобы не дать пропасть делу всей жизни Светланы, Рита отменяет свадьбу и принимает на себя руководство ее ветеринарной клиникой. Каково же удивление Полуниной, когда она узнает, что лучший специалист клиники - ее заклятый враг и по совместительству бывший возлюбленный Федор Котов. Не сумев найти общего языка спустя много лет после расставания, Рита и Федор начинают войну по выживанию друг друга из клиники...

Качество: SATRip
Формат: AVI
Видео кодек: XviD
Аудио кодек: MP3
Видео: 720x400 (1.80:1), 25 fps, XviD build 50 ~1800 kbps
Аудио#1: 48 kHz, MPEG Layer 3, 2 ch, ~128.00 kbps avg
скриншот   скриншот   скриншот   скриншот  

General
Complete name : H:\релизы.торрентфайл\Doktor.Kotov.SATRip.[www.riperam.org]\Doktor.Kotov.01.SATRip.[www.riperam.org].avi
Format : AVI
Format/Info : Audio Video Interleave
File size : 679 MiB
Duration : 48mn 58s
Overall bit rate : 1 937 Kbps
Writing application : VirtualDubMod 1.5.10.3 | www.virtualdub-fr.org || (build 2550/release)
Writing library : VirtualDubMod build 2550/release

Video
ID : 0
Format : MPEG-4 Visual
Format profile : Advanced Simple@L5
Format settings, BVOP : 2
Format settings, QPel : No
Format settings, GMC : No warppoints
Format settings, Matrix : Default (H.263)
Codec ID : XVID
Codec ID/Hint : XviD
Duration : 48mn 58s
Bit rate : 1 800 Kbps
Width : 720 pixels
Height : 400 pixels
Display aspect ratio : 16:9
Frame rate : 25.000 fps
Color space : YUV
Chroma subsampling : 4:2:0
Bit depth : 8 bits
Scan type : Progressive
Compression mode : Lossy
Bits/(Pixel*Frame) : 0.250
Stream size : 630 MiB (93%)
Writing library : XviD 1.2.1 (UTC 2008-12-04)

Audio
ID : 1
Format : MPEG Audio
Format version : Version 1
Format profile : Layer 3
Mode : Joint stereo
Codec ID : 55
Codec ID/Hint : MP3
Duration : 48mn 58s
Bit rate mode : Constant
Bit rate : 128 Kbps
Channel(s) : 2 channels
Sampling rate : 48.0 KHz
Compression mode : Lossy
Stream size : 44.8 MiB (7%)
Alignment : Aligned on interleaves
Interleave, duration : 40 ms (1.00 video frame)
Interleave, preload duration : 504 ms
Writing library : LAME3.99r
Encoding settings : -m j -V 4 -q 9 -lowpass 17 -b 128

Внимание! Раздача ведётся путём добавления новых серий; при каждом добавлении создётся новый торрент. Чтобы начать докачку новой серии, пользователям необходимо сделать следующее:
  • Остановить скачивание,
  • Удалить старый торрент у себя из клиента (старые серии удалять не надо),
  • Скачать новый торрент и запустить его у себя в клиенте вместо старого, при этом указать клиенту путь в старую папку куда и должно происходить скачивание новых серий.
Ваш клиент при этом должен произвести хеширование (проверку) старой папки (если не производит сам - помогите ему сделать это), и будет докачивать только те серии которых у вас ещё нет. Старые серии при этом не удаляются, а продолжают раздаваться!

Eсли вы уже удалили старые серии, то предотвратить повторную закачку старых серий можно, отжав галочку в соответсвующих местах при запуске нового торрента. По возможности, желательно не удалять старые серии как можно дольше чтобы релизёр не столько продолжал раздавать старые серии, а смог сконцентрироваться на новых.
pb.wtf



Скачать Доктор Котов через торрент http://i99.fastpic.ru/big/2018/0331/81/39df7c65fe632c284efa01a7f8febb81.jpg Скачать фильм Доктор Котов через торрент бесплантно в хорошем качестве Описание: Накануне свадьбы Риты Полуниной и Павла Захаркина в аварию попадает сестра невесты, Светлана. Чтобы не дать пропасть делу всей ... 7 10 3
Торрент: Зарегистрирован [2018-03-31 11:51] · скачан: 43 раз
Статус: √ проверено
Размер: 2.58 GB
Как cкачать? Как скачать Доктор Котов через торрент | qTorrent

% Раздел Тема Автор DL S | L
Наши сериалы [ 2.26 GB ] Доктор Котов / Серии: 1-4 из 4 [2018 SATRip-AVC] aleksan55 Скачать
1 | 0
Фильмы до 2000 г. [ 700 MB ] Хихикающий доктор / Dr. Giggles [1992 DVDRip] makarevich Скачать
1 | 0

28-11-2019 20:33  

Отключить всю рекламу на сайте

31-03-2018 11:51 Доктор Котов Скачать торрент  

Добавил 2-4 серии.pb.wtf



    Дорогой пользователь! Огромная просьба, поблагодарите релизера, оцените раздачу и оставьте свои комментарий, если Вы скачали Доктор Котов через торрент бесплатно! Внесите свою лепту в развитие PiratBit!
    Комментировать посты могут только пользователи прошедшие не сложную регистрацию
    Показать сообщения:    

    Доктор Котов через торрент
    Скачать бесплатно Доктор Котов
    Доктор Котов скачать торрент
    Доктор Котов смотреть онлайн
    Cкачать фильм Доктор Котов бесплатно
    Доктор Котов скачать торрент в хорошем качестве
    Доктор Котов смотреть онлайн бесплатно в хорошем качестве


    Вы не можете начинать темы
    Вы не можете отвечать на сообщения
    Вы не можете редактировать свои сообщения
    Вы не можете удалять свои сообщения
    Вы не можете голосовать в опросах
    Вы не можете прикреплять файлы к сообщениям
    Вы можете скачивать файлы