Ссылка на приватное зеркало всего за 1$. Внимание количество ограничено!!!

OK

1+1

iTunes

мы

OK

1

WEB-DLRip

Джокер

Пифагор

Ведьмак / The Witcher сериал

iTunes

ПШазам

ОК

Оно 2

iTunes

30
pack

Вам бонус

ВАЖНО

!!Акция!!

Alien_RageХит недели

RePack

Resident Evil 21

ИГРА 18+

pack

RePack

jed

RePack

fifa19

RePack

Assassins Creed: Odyssey

RePack

NEED FOR SPEED™ PAYBACK

4 сезон

9 сезон

Бесстыжие 9 сезон

Все сериалы

все сериалы на PB.wtf

RePack

FAR CRY 5
  

Соревнование / The Competition (Харви Лоури) [2018, Харви Лоури, BDRip 720p] MVO ["Синема УС"] pb.wtf

Соревнование через торрент pb.wtf

Размер: 4.8 GB | Добавлен: 1 год 9 мес. назад | Торрент скачан:49 раз
Скачать  

31-03-2018 10:18 Соревнование Скачать торрент  

Соревнование / The CompetitionГод выпуска: 2018
Страна: США
Жанр: 01:45:31
Продолжительность: мелодрама, комедия
Перевод: Любительский (многоголосый) | "Синема УС"
Субтитры: отсутствуют

Режиссер: Харви Лоури

rating

В ролях:

Тора Бёрч, Клэр Коффи, Дэвид Блу, Крис Клейн, Джейсон Тобиаш, Тиффани Фэллон, Гэбриэлль Стоун, Харви Лоури, Тим Харольд

Описание:

Главная героиня, следуя своей «теории СВИН», заканчивает любые отношения после 6 месяцев для того, чтобы избежать измен. Но однажды она встречает мужчину, который желает опровергнуть её теорию.

Качество: BDRip 720p
Формат: MKV

Видео: 6062 Кбит/с, 1280x534
Аудио#1: AC3, 2 ch, 448 Кбит/с
скриншот  скриншот  скриншот  

Общее
Уникальный идентификатор : 194430337478386004619183768329419379780 (0x9245EBC068F73AC2B130721FD74E5444)
Полное имя : D:\The.Competition.2018.P.BDRip.72Op_KOSHARA.mkv
Формат : Matroska
Версия формата : Version 2
Размер файла : 4,80 Гбайт
Продолжительность : 1 ч. 45 м.
Режим общего битрейта : Переменный
Общий поток : 6512 Кбит/сек
Дата кодирования : UTC 2018-03-30 18:33:36
Программа кодирования : mkvmerge v8.3.0 ('Over the Horizon') 64bit
Библиотека кодирования : libebml v1.3.1 + libmatroska v1.4.2

Видео
Идентификатор : 1
Формат : AVC
Формат/Информация : Advanced Video Codec
Профиль формата : High@L4.1
Параметр CABAC формата : Да
Параметр RefFrames формата : 4 кадра
Идентификатор кодека : V_MPEG4/ISO/AVC
Продолжительность : 1 ч. 45 м.
Вид битрейта : Переменный
Битрейт : 6062 Кбит/сек
Максимальный битрейт : 6800 Кбит/сек
Ширина : 1280 пикселей
Высота : 534 пикселя
Соотношение сторон : 2,40:1
Режим частоты кадров : Постоянный
Частота кадров : 23,976 (24000/1001) кадра/сек
Стандарт вещания : Component
Цветовое пространство : YUV
Субдискретизация насыщенности : 4:2:0
Битовая глубина : 8 бит
Тип развёртки : Прогрессивная
Бит/(Пиксели*Кадры) : 0.362
Размер потока : 4,37 Гбайт (91%)
Default : Да
Forced : Нет
Цветовой диапазон : Limited
Основные цвета : BT.709
Характеристики трансфера : BT.709
Коэффициенты матрицы : BT.709

Аудио
Идентификатор : 2
Формат : AC-3
Формат/Информация : Audio Coding 3
Расширение режима : CM (complete main)
Параметр Endianness формата : Big
Идентификатор кодека : A_AC3
Продолжительность : 1 ч. 45 м.
Вид битрейта : Постоянный
Битрейт : 448 Кбит/сек
Каналы : 2 канала
Расположение каналов : Front: L R
Частота : 48,0 КГц
Частота кадров : 31,250 кадров/сек (1536 spf)
Метод сжатия : С потерями
Размер потока : 338 Мбайт (7%)
Default : Да
Forced : Нет

pb.wtf



Скачать Соревнование через торрент http://img12.lostpic.net/2018/03/31/0e7cd95673b30316945a70f5455f40f2.jpg Скачать фильм Соревнование через торрент бесплантно в хорошем качестве Описание: Главная героиня, следуя своей «теории СВИН», заканчивает любые отношения после 6 месяцев для того, чтобы избежать измен. Но ... 9.4 10 5
Торрент: Зарегистрирован [2018-03-31 10:18] · скачан: 49 раз
Статус: # сомнительно
Размер: 4.8 GB
Как cкачать? Как скачать Соревнование через торрент | qTorrent

% Раздел Тема Автор DL S | L
T Фильмы (мультфильмы) cо спонсором показа (Новинки AVI/MKV) [ 1.36 GB ] Соревнование / The Competition [2018 Харви Лоури HDRip] MVO ["Синема УС"] bober100 Скачать
1 | 0

28-11-2019 20:33  

Отключить всю рекламу на сайте

    Дорогой пользователь! Огромная просьба, поблагодарите релизера, оцените раздачу и оставьте свои комментарий, если Вы скачали Соревнование через торрент бесплатно! Внесите свою лепту в развитие PiratBit!
    Комментировать посты могут только пользователи прошедшие не сложную регистрацию
    Показать сообщения:    

    Соревнование через торрент
    Скачать бесплатно Соревнование
    Соревнование скачать торрент
    Соревнование смотреть онлайн
    Cкачать фильм Соревнование бесплатно
    Соревнование скачать торрент в хорошем качестве
    Соревнование смотреть онлайн бесплатно в хорошем качестве


    Вы не можете начинать темы
    Вы не можете отвечать на сообщения
    Вы не можете редактировать свои сообщения
    Вы не можете удалять свои сообщения
    Вы не можете голосовать в опросах
    Вы не можете прикреплять файлы к сообщениям
    Вы можете скачивать файлы